<?xml version="1.0" standalone="no"?>
<!DOCTYPE svg PUBLIC "-//W3C//DTD SVG 1.1//EN" "http://www.w3.org/Graphics/SVG/1.1/DTD/svg11.dtd">
<svg xmlns="http://www.w3.org/2000/svg">
<defs >
<font id="SourceSerifPro" horiz-adv-x="534" ><font-face
    font-family="Source Serif Pro"
    units-per-em="1000"
    panose-1="2 4 6 3 5 4 5 2 2 4"
    ascent="918"
    descent="-335"
    alphabetic="0" />
<glyph unicode=" " glyph-name="space" horiz-adv-x="234" />
<glyph unicode="!" glyph-name="exclam" horiz-adv-x="290" d="M133 198L152 355Q162 456 169 521T181 607Q190 654 207 669T245 684Q290 684 290 638Q290 620 284 593T264 519T226 394T166 198H133ZM58 46Q58 75 79 95T128 116Q154 116 169 99T185 56Q185 28
164 8T114 -12Q91 -12 75 4T58 46Z" />
<glyph unicode="&quot;" glyph-name="quotedbl" horiz-adv-x="423" d="M225 736Q245 736 254 723T263 689Q263 670 252 629T225 537T192 433H159L160 503Q160 516 161 539T163 589T167 640T172 679Q177 711 190 723T225 736ZM390 736Q410 736 419 723T428 689Q428
670 417 629T390 537T357 433H324L325 503Q325 516 326 539T328 589T332 640T337 679Q342 711 355 723T390 736Z" />
<glyph unicode="#" glyph-name="numbersign" horiz-adv-x="555" d="M209 261H377L412 393H244L209 261ZM92 0L141 180H45L61 261H163L198 393H101L117 474H220L268 650H314L266 474H434L482 650H528L480 474H570L554 393H458L423 261H514L498 180H401L352 0H306L355
180H187L138 0H92Z" />
<glyph unicode="$" glyph-name="dollar" horiz-adv-x="511" d="M184 -115L205 -12Q134 -8 96 25T52 128Q64 163 94 163Q114 163 127 150T143 95L147 37Q180 26 213 25L266 286L237 304Q184 338 158 376T131 471Q131 521 155 562T226 630T340 660L358 750H397L378
659Q445 654 479 621T517 531Q513 509 501 500T473 490Q457 490 443 503T428 550V609Q412 614 398 616T370 619L318 359L332 350Q376 323 403 299T442 246T455 176Q455 126 429 84T356 17T243 -13L222 -115H184ZM383 148Q383 192 360 216T299 264L251 26Q315 31
349 64T383 148ZM202 501Q202 467 212 446T241 411T283 381L331 619Q272 615 237 585T202 501Z" />
<glyph unicode="%" glyph-name="percent" horiz-adv-x="870" d="M230 -15L196 10L693 666L726 640L230 -15ZM190 246Q138 246 107 280T76 382Q76 461 101 524T169 623T262 660Q314 660 345 625T376 520Q376 441 350 379T281 282T190 246ZM194 275Q215 275 235
296T271 355T297 438T307 534Q307 590 293 609T258 629Q232 629 206 596T163 505T146 376Q146 317 159 296T194 275ZM649 -8Q597 -8 566 26T535 128Q535 207 560 270T628 369T721 406Q773 406 804 371T835 266Q835 187 809 125T740 28T649 -8ZM653 21Q674 21 694
42T730 101T756 184T766 280Q766 336 752 355T717 375Q691 375 665 342T622 251T605 122Q605 63 618 42T653 21Z" />
<glyph unicode="&amp;" glyph-name="ampersand" horiz-adv-x="694" d="M320 -13Q245 -13 188 12T98 85T66 201Q66 248 84 293T139 372T229 421Q206 458 206 502Q206 550 231 592T302 659T414 685Q461 685 499 665T548 600Q544 587 536 578T510 569Q475 569 455
612L439 649Q433 650 427 650T414 650Q345 650 306 612T267 506Q267 464 287 429H293Q337 429 363 417T389 382Q389 364 378 355T350 345Q322 345 297 357T253 389Q192 366 167 319T141 219Q141 165 167 128T237 72T330 53Q408 53 456 83T504 163Q504 204 478 226T393
252L400 300Q471 301 519 322T599 385T656 490L723 460Q686 374 629 332T485 278Q521 262 535 231T550 167Q550 113 522 73T442 10T320 -13Z" />
<glyph unicode="&apos;" glyph-name="quotesingle" horiz-adv-x="258" d="M225 736Q245 736 254 723T263 689Q263 670 252 629T225 537T192 433H159L160 503Q160 516 161 539T163 589T167 640T172 679Q177 711 190 723T225 736Z" />
<glyph unicode="(" glyph-name="parenleft" horiz-adv-x="375" d="M234 -211Q161 -122 122 -28T82 175Q82 330 164 467T409 714L432 683Q296 574 228 452T160 172Q160 71 186 -13T268 -190L234 -211Z" />
<glyph unicode=")" glyph-name="parenright" horiz-adv-x="375" d="M175 714Q248 625 287 531T327 328Q327 173 246 36T0 -211L-23 -180Q114 -70 181 51T249 331Q249 432 223 516T141 693L175 714Z" />
<glyph unicode="*" glyph-name="asterisk" horiz-adv-x="480" d="M282 750Q296 750 305 743T318 716Q320 704 321 669T324 564Q389 611 420 634T472 657Q483 657 492 650T502 623Q502 606 486 595T434 573T338 539Q384 505 413 485T458 451T475 423Q477 410 469
399T449 386Q433 384 417 397T378 440T318 518Q291 431 274 391T232 351Q221 351 212 358T203 382Q203 396 212 412T242 457T292 530Q224 529 184 529T126 537T108 566Q108 577 115 588T139 599Q156 599 189 590T297 560Q274 626 262 663T249 716Q249 728 256 739T282
750Z" />
<glyph unicode="+" glyph-name="plus" horiz-adv-x="530" d="M253 92V303H59V356H253V563H310V356H503V303H310V92H253Z" />
<glyph unicode="," glyph-name="comma" horiz-adv-x="300" d="M15 -160L0 -132Q35 -114 64 -88T118 -25L90 8Q72 28 72 59Q72 82 86 99T134 117Q156 117 180 105Q191 88 191 65Q191 17 167 -27T104 -105T15 -160Z" />
<glyph unicode="-" glyph-name="hyphen" horiz-adv-x="311" d="M56 219V283H287V219H56Z" />
<glyph unicode="." glyph-name="period" horiz-adv-x="300" d="M122 -10Q97 -10 80 6T63 47Q63 77 84 96T134 116Q160 116 176 99T192 59Q192 29 172 10T122 -10Z" />
<glyph unicode="/" glyph-name="slash" horiz-adv-x="329" d="M-89 -160L356 710H420L-26 -160H-89Z" />
<glyph unicode="0" glyph-name="zero" horiz-adv-x="511" d="M475 -9Q396 -9 353 49T309 212Q309 305 331 386T393 527T486 622T599 656Q678 656 721 602T765 435Q765 342 742 262T678 121T585 26T475 -9ZM484 33Q520 33 556 63T621 148T667 276T685 436Q685 503
672 541T638 596T589 613Q554 613 519 583T454 498T406 373T388 218Q388 114 414 74T484 33Z" />
<glyph unicode="1" glyph-name="one" horiz-adv-x="511" d="M176 603L387 656L398 646L365 503L306 211Q298 171 290 131T274 50L423 35L415 0H53L60 35L200 49L306 574L168 563L176 603Z" />
<glyph unicode="2" glyph-name="two" horiz-adv-x="511" d="M297 0L310 64L457 203Q523 265 566 309T633 386T668 446T679 502Q679 560 649 589T563 619Q518 619 485 599L478 538Q474 493 461 479T427 464Q411 464 400 475T387 501Q405 585 454 622T583 660Q674
660 716 616T758 506Q758 464 740 428T689 357T607 279T497 182L381 77H692L676 0H297Z" />
<glyph unicode="3" glyph-name="three" horiz-adv-x="511" d="M234 -13Q185 -13 146 3T84 57T61 160Q69 174 78 180T102 185Q143 184 143 125V49Q186 27 235 27Q298 27 341 66T384 185Q384 245 353 277T254 309H220L229 352H266Q305 352 340 369T397 421T419 510Q419
566 389 592T318 619Q271 619 234 602L227 536Q224 510 214 494T180 477Q166 477 153 487T138 511Q153 582 201 621T332 660Q412 660 454 618T496 512Q496 439 451 394T335 331Q400 317 433 278T466 180Q466 116 434 74T348 9T234 -13Z" />
<glyph unicode="4" glyph-name="four" horiz-adv-x="511" d="M753 187H644L602 -19H533L575 187H286L297 238L687 655H740L657 248H766L753 187ZM356 248H588L653 564L356 248Z" />
<glyph unicode="5" glyph-name="five" horiz-adv-x="511" d="M216 -13Q137 -13 97 27T54 145Q61 161 73 167T98 174Q122 174 131 157T143 98L146 40Q161 32 177 29T214 26Q285 26 333 72T382 206Q382 274 350 311T256 349Q225 349 202 344T162 330L135 336L209
647H522L504 566H232L188 376Q208 382 231 385T276 389Q369 389 416 341T463 214Q463 139 429 89T339 13T216 -13Z" />
<glyph unicode="6" glyph-name="six" horiz-adv-x="511" d="M415 211Q415 117 444 72T532 26Q564 26 592 46T638 107T656 207Q656 275 628 302T545 330Q517 330 485 323T422 295Q418 275 417 254T415 211ZM517 -13Q432 -13 384 46T335 213Q335 299 366 378T456
519T599 618T788 658L790 626Q691 616 617 576T496 473T429 331Q501 387 586 387Q654 387 694 341T735 220Q735 164 716 121T665 48T595 3T517 -13Z" />
<glyph unicode="7" glyph-name="seven" horiz-adv-x="511" d="M82 10L458 572H127L142 647H533L523 596L165 0H89L82 10Z" />
<glyph unicode="8" glyph-name="eight" horiz-adv-x="511" d="M461 497Q461 453 484 423T563 356Q628 390 652 427T676 513Q676 562 653 592T582 623Q528 623 495 589T461 497ZM489 -11Q412 -11 367 25T322 128Q322 189 367 241T482 321Q434 360 413 398T391 479Q391
530 417 571T488 636T588 660Q661 660 703 620T745 521Q745 455 711 414T590 337Q649 296 674 258T699 166Q699 113 671 73T596 11T489 -11ZM391 139Q391 85 418 54T496 23Q553 23 589 55T625 144Q625 175 616 198T581 245T507 302Q448 271 420 230T391 139Z" />
<glyph unicode="9" glyph-name="nine" horiz-adv-x="511" d="M183 448Q183 385 216 349T309 312Q336 312 363 320T423 345Q428 368 430 392T433 441Q433 524 405 571T320 619Q282 619 251 596T202 535T183 448ZM77 24Q350 116 414 310Q342 265 276 265Q199 265
154 312T108 433Q108 498 138 549T220 629T331 659Q417 659 463 600T509 441Q509 333 459 243T314 87T86 -14L77 24Z" />
<glyph unicode=":" glyph-name="colon" horiz-adv-x="301" d="M376 -10Q351 -10 334 6T317 47Q317 77 338 96T388 116Q414 116 430 99T446 59Q446 29 426 10T376 -10ZM197 353Q172 353 155 369T138 410Q138 440 159 459T209 479Q235 479 251 462T267 422Q267 392
247 373T197 353Z" />
<glyph unicode=";" glyph-name="semicolon" horiz-adv-x="301" d="M197 353Q172 353 155 369T138 410Q138 440 159 459T209 479Q235 479 251 462T267 422Q267 392 247 373T197 353ZM20 -160L5 -132Q40 -114 69 -88T123 -25L95 8Q77 28 77 59Q77 82 91 99T139 117Q161
117 185 105Q196 88 196 65Q196 17 172 -27T109 -105T20 -160Z" />
<glyph unicode="&lt;" glyph-name="less" horiz-adv-x="530" d="M86 307V352L448 563L477 513L150 330L477 147L448 97L86 307Z" />
<glyph unicode="=" glyph-name="equal" horiz-adv-x="530" d="M503 459H59V512H503V459ZM503 403H59V456H503V403Z" />
<glyph unicode="&gt;" glyph-name="greater" horiz-adv-x="530" d="M477 353V308L115 97L86 147L413 330L86 513L115 563L477 353Z" />
<glyph unicode="?" glyph-name="question" horiz-adv-x="444" d="M76 45Q76 74 97 94T144 115Q171 115 186 98T202 55Q202 27 182 7T136 -13Q110 -13 93 3T76 45ZM133 184Q137 255 145 290T172 346Q182 356 193 367T229 395T300 440Q358 475 380 507T402 570Q402
606 378 625T310 645Q294 645 282 644T258 641L227 566Q218 545 207 535T175 525Q159 525 149 536T138 564Q146 594 167 622T225 667T318 685Q386 685 429 655T472 562Q472 527 459 500T414 446T330 385Q287 358 263 342T228 318T210 303Q194 286 185 261T168 179L133
184Z" />
<glyph unicode="@" glyph-name="at" horiz-adv-x="872" d="M335 185Q335 144 349 124T388 104Q412 104 442 123T516 190L564 412Q551 420 537 424T509 429Q484 429 454 411T397 360T353 283T335 185ZM580 43Q532 43 517 71T506 143Q467 98 427 71T350 43Q318 43
292 67T265 147Q265 194 282 242T329 334T394 413T468 468T540 488Q556 488 568 482T591 464L632 497L648 489L575 162Q566 123 574 109T607 95Q629 95 660 109T721 154T771 235T791 355Q791 434 760 493T672 586T537 620Q453 620 379 586T248 491T159 349T126
174Q126 37 202 -36T416 -109Q462 -109 500 -102T573 -82L584 -113Q539 -135 488 -145T393 -155Q295 -155 222 -117T107 -7T66 160Q66 270 104 361T208 520T360 623T542 660Q648 660 715 618T813 507T845 353Q845 274 818 216T748 119T660 62T580 43Z" />
<glyph unicode="A" glyph-name="A" horiz-adv-x="676" d="M-29 0L-21 40L62 52L405 670H463L551 51L639 40L631 0H366L374 40L461 50L435 243H217L116 53L203 40L195 0H-29ZM241 289H429L391 572L241 289Z" />
<glyph unicode="B" glyph-name="B" horiz-adv-x="624" d="M122 629L130 670H385Q485 670 532 628T579 524Q579 461 534 416T420 353Q493 337 531 291T570 186Q570 129 535 88T437 23T293 0H16L24 40L110 51L168 360Q192 489 213 618L122 629ZM243 310Q231 244
220 178T197 46H283Q354 46 396 66T458 122T477 199Q477 261 433 294T320 327H246L243 310ZM372 623H302L255 373H310Q405 373 448 412T492 510Q492 560 463 591T372 623Z" />
<glyph unicode="C" glyph-name="C" horiz-adv-x="593" d="M330 -15Q246 -15 185 22T91 125T58 281Q58 364 88 437T170 566T292 653T440 685Q480 685 521 674T609 632L586 492H529V615Q483 635 431 635Q371 635 320 607T230 531T170 419T149 285Q149 201 178 146T257
63T363 35Q386 35 408 39T452 50L493 175H553L525 30Q485 13 440 -1T330 -15Z" />
<glyph unicode="D" glyph-name="D" horiz-adv-x="701" d="M122 629L130 670H404Q490 670 553 637T650 542T685 394Q685 295 652 221T563 98T437 25T290 0H16L24 40L110 51L168 360Q192 489 213 618L122 629ZM243 310Q231 244 220 178T197 46H304Q376 46 429 76T518
157T572 270T590 394Q591 506 531 564T363 623H302L243 310Z" />
<glyph unicode="E" glyph-name="E" horiz-adv-x="587" d="M122 629L130 670H592L568 492H518V619H301L253 365H408L442 461H484L439 224H397L400 319H245L243 310Q231 246 220 181T198 50H458L503 178H554L515 0H16L24 40L110 51L168 360Q192 489 213 618L122 629Z" />
<glyph unicode="F" glyph-name="F" horiz-adv-x="550" d="M122 629L130 670H605L576 492H526V619H301L253 365H407L441 461H483L439 214H397L400 319H245L243 310Q219 181 198 52L294 40L286 0H16L24 40L109 50L168 360Q192 489 213 618L122 629Z" />
<glyph unicode="G" glyph-name="G" horiz-adv-x="655" d="M58 277Q58 366 88 440T172 569T294 654T440 685Q496 685 538 675T628 632L605 492H549V615Q524 625 496 630T440 635Q374 635 321 607T229 531T170 419T149 283Q149 202 181 147T264 64T373 35Q421 35
463 48L471 90Q479 134 486 178T501 266L401 278L408 318H668L661 278L589 269L545 30Q499 9 451 -3T347 -15Q257 -15 193 22T93 125T58 277Z" />
<glyph unicode="H" glyph-name="H" horiz-adv-x="764" d="M527 629L535 670H800L792 629L706 619L648 310Q624 181 603 52L695 40L687 0H422L430 40L515 50L566 320H245L243 310Q231 246 220 181T198 51L290 40L282 0H17L25 40L109 50L168 360Q180 425 192 489T214
618L122 629L130 670H395L387 629L301 619L254 366H575Q586 429 597 492T619 618L527 629Z" />
<glyph unicode="I" glyph-name="I" horiz-adv-x="358" d="M122 629L130 670H395L387 629L301 619L243 310Q231 246 220 181T198 51L289 40L281 0H16L24 40L109 50L168 360Q192 489 213 618L122 629Z" />
<glyph unicode="J" glyph-name="J" horiz-adv-x="404" d="M176 629L184 670H459L451 629L360 618L301 263Q292 207 282 168T258 100Q238 52 205 20T135 -28T64 -44Q30 -44 4 -32T-28 7Q-22 30 -3 41T40 53Q56 53 73 44T123 10Q179 52 198 140Q203 164 207 191T217
258T233 360Q243 424 253 488T272 618L176 629Z" />
<glyph unicode="K" glyph-name="K" horiz-adv-x="663" d="M484 629L493 670H713L705 629L606 616L379 407L570 51L652 40L646 0H396L401 40L478 50L318 351L237 277Q227 221 217 165T198 51L288 40L280 0H15L24 40L109 50L168 360Q192 489 213 618L122 629L130
670H395L387 629L301 619L249 341L549 618L484 629Z" />
<glyph unicode="L" glyph-name="L" horiz-adv-x="568" d="M122 629L130 670H405L397 629L301 617L243 310Q231 246 220 181T198 50H453L501 188H557L521 0H16L24 40L110 51L168 360Q192 489 213 618L122 629Z" />
<glyph unicode="M" glyph-name="M" horiz-adv-x="927" d="M-7 0L1 40L93 53L226 619L140 629L148 670H333L448 129L767 670H943L939 629L844 617L800 312Q791 248 783 183T766 53L856 42L851 0H591L597 42L678 52L755 574L420 1H391L261 567L139 53L231 40L223 0H-7Z" />
<glyph unicode="N" glyph-name="N" horiz-adv-x="727" d="M548 629L556 670H792L784 629L704 616L588 -10H557L242 547L148 53L248 40L242 0H9L18 40L100 52L205 612L201 619L116 629L125 670H278L569 146L655 616L548 629Z" />
<glyph unicode="O" glyph-name="O" horiz-adv-x="660" d="M305 -14Q233 -14 180 19T96 113T66 259Q66 346 91 423T162 558T271 650T412 684Q486 684 540 651T624 555T654 409Q654 323 629 247T558 112T448 20T305 -14ZM319 36Q393 36 448 85T534 220T565 411Q565
513 526 573T400 634Q327 634 272 585T186 450T155 257Q155 158 194 97T319 36Z" />
<glyph unicode="P" glyph-name="P" horiz-adv-x="563" d="M343 623H302L243 310L242 306H301Q397 306 444 355T492 483Q492 552 454 587T343 623ZM122 629L130 670H358Q472 670 528 621T585 494Q585 427 552 374T457 291T303 260H234Q224 208 215 156T198 52L294
40L286 0H16L24 40L109 50L168 360Q192 489 213 618L122 629Z" />
<glyph unicode="Q" glyph-name="Q" horiz-adv-x="660" d="M319 36Q393 36 448 85T534 220T565 411Q565 513 526 573T400 634Q327 634 272 585T186 450T155 257Q155 158 194 97T319 36ZM496 -249Q426 -249 375 -219T295 -134T260 -10Q172 4 119 75T66 259Q66 346
91 423T162 558T271 650T412 684Q486 684 540 651T624 555T654 409Q654 328 632 256T570 127T472 33T344 -12Q351 -94 394 -140T513 -186Q553 -186 581 -179T639 -157L654 -186Q623 -214 584 -231T496 -249Z" />
<glyph unicode="R" glyph-name="R" horiz-adv-x="646" d="M386 623H302L252 355H323Q423 355 465 399T507 513Q507 566 476 594T386 623ZM122 629L130 670H395Q487 670 543 629T599 511Q599 438 550 385T397 316Q426 303 444 276T480 198L531 53L637 40L629 0Q612
-4 594 -7T545 -10Q502 -10 477 6T438 60L387 215Q374 255 361 275T331 302T285 310H243Q219 181 198 52L294 40L286 0H16L24 40L109 50L168 360Q192 489 213 618L122 629Z" />
<glyph unicode="S" glyph-name="S" horiz-adv-x="494" d="M34 30L53 172H110L122 47Q163 35 207 35Q282 35 318 69T354 155Q354 178 347 199T318 245T251 305Q200 344 172 377T133 440T122 502Q122 555 150 596T227 661T340 685Q381 685 422 675T506 640L483 500H424L418
623Q398 631 383 633T352 635Q279 635 239 608T198 524Q198 484 220 452T296 378Q353 334 382 300T423 237T434 177Q434 119 406 76T328 9T211 -15Q166 -15 116 -3T34 30Z" />
<glyph unicode="T" glyph-name="T" horiz-adv-x="569" d="M76 491L112 670H634L605 491H554V619H410L352 310Q328 181 307 52L408 40L400 0H115L123 40L220 51L278 360Q290 425 301 490T323 619H173L127 491H76Z" />
<glyph unicode="U" glyph-name="U" horiz-adv-x="712" d="M528 629L536 670H778L770 629L684 617L619 274Q599 168 559 105T460 13T328 -15Q227 -15 174 35T120 179Q120 204 124 231T133 286L147 360Q171 489 192 618L100 629L108 670H373L365 629L278 618L216
282Q212 263 209 242T205 185Q205 122 244 89T339 55Q409 55 453 76T524 150T570 298L631 616L528 629Z" />
<glyph unicode="V" glyph-name="V" horiz-adv-x="605" d="M483 629L491 670H715L707 629L619 616L284 -10H241L140 619L62 629L70 670H335L327 629L231 617L302 122L566 617L483 629Z" />
<glyph unicode="W" glyph-name="W" horiz-adv-x="872" d="M750 629L759 670H982L974 629L892 617L605 -10H565L496 524L237 -10H196L140 619L62 629L70 670H331L323 629L229 617L257 133L490 617L394 629L402 670H665L657 629L564 618L618 127L839 616L750 629Z" />
<glyph unicode="X" glyph-name="X" horiz-adv-x="661" d="M471 629L478 670H720L713 629L621 617L403 357L535 52L632 40L624 0H353L362 40L444 49L340 288L154 53L249 40L242 0H-2L5 40L95 51L323 327L196 619L116 629L124 670H390L381 629L289 618L385 396L563
616L471 629Z" />
<glyph unicode="Y" glyph-name="Y" horiz-adv-x="554" d="M62 629L70 670H335L327 629L239 618L330 329L516 616L432 629L440 670H663L655 629L565 616L343 278Q333 222 323 165T304 52L405 40L397 0H112L120 40L216 50L259 280L142 619L62 629Z" />
<glyph unicode="Z" glyph-name="Z" horiz-adv-x="537" d="M89 491L123 670H589L582 634L115 50H415L460 178H519L484 0H1L8 35L473 619H192L147 491H89Z" />
<glyph unicode="[" glyph-name="bracketleft" horiz-adv-x="325" d="M35 -159Q52 -82 68 -2T100 158L146 398Q162 477 177 556T205 715H394L386 675L270 662Q257 598 244 532T217 398L171 158Q158 93 145 27T121 -106L232 -119L224 -159H35Z" />
<glyph unicode="\" glyph-name="backslash" horiz-adv-x="313" d="M258 -160H201L112 710H169L258 -160Z" />
<glyph unicode="]" glyph-name="bracketright" horiz-adv-x="325" d="M334 715Q317 638 301 558T269 398L223 158Q207 79 193 0T164 -159H-25L-17 -119L99 -106Q113 -41 126 25T152 158L198 398Q211 463 224 529T248 662L137 675L145 715H334Z" />
<glyph unicode="^" glyph-name="asciicircum" horiz-adv-x="530" d="M112 243L259 481H322L469 243L424 210L290 422L156 210L112 243Z" />
<glyph unicode="_" glyph-name="underscore" horiz-adv-x="511" d="M12 -64V0H443V-64H12Z" />
<glyph unicode="`" glyph-name="grave" horiz-adv-x="400" d="M368 549L345 534Q315 570 286 605T226 676Q214 690 210 702T205 727Q205 743 216 752T243 762Q260 762 272 750T294 717Q313 675 331 633T368 549Z" />
<glyph unicode="a" glyph-name="a" horiz-adv-x="522" d="M123 146Q123 100 139 78T183 56Q209 56 243 77T326 152L380 402Q366 410 351 415T319 421Q295 421 266 406T209 363Q173 326 148 269T123 146ZM363 -13Q343 -13 327 1T311 45Q311 74 315 98Q272 49 227
18T140 -13Q104 -13 75 15T45 105Q45 157 64 211T116 314T189 403T272 464T354 487Q371 487 385 480T411 460L457 497L475 488L395 135Q386 98 386 78Q386 68 393 62T410 56Q429 56 455 76T508 128L532 109Q513 80 486 52T428 6T363 -13Z" />
<glyph unicode="b" glyph-name="b" horiz-adv-x="494" d="M163 104Q163 50 213 50Q274 50 331 104Q372 143 396 203T421 324Q421 372 405 396T360 420Q328 420 287 392T198 312L183 243Q175 205 171 182T165 141T163 104ZM169 -13Q135 -13 111 9T86 70Q86 102
92 139T109 227L194 654L95 661L100 690L273 740L284 732L207 359Q253 419 307 453T405 487Q442 487 469 460T496 364Q496 313 478 260T428 159T354 71T265 10T169 -13Z" />
<glyph unicode="c" glyph-name="c" horiz-adv-x="407" d="M204 -13Q138 -13 96 33T54 174Q54 237 76 293T135 393T218 462T311 487Q357 487 384 467T419 414Q416 395 404 387T377 379Q361 379 347 389T318 415L288 449Q245 434 209 395T151 302T129 185Q129 120
160 88T240 56Q280 56 310 80T362 129L385 111Q355 59 305 23T204 -13Z" />
<glyph unicode="d" glyph-name="d" horiz-adv-x="524" d="M124 151Q124 102 142 79T187 56Q214 56 248 78T333 158L381 397Q366 410 351 415T320 421Q288 421 257 405T200 359Q166 322 145 267T124 151ZM402 135Q394 95 394 78Q394 68 401 62T417 56Q437 56 463
76T515 128L539 109Q520 80 494 52T436 6T371 -13Q348 -13 332 0T315 39Q314 50 315 64T322 105Q277 53 228 20T137 -13Q101 -13 74 16T47 113Q47 163 65 215T115 316T185 403T267 464T350 487Q377 487 399 472L437 654L336 661L340 690L511 740L523 732L402 135Z"
/>
<glyph unicode="e" glyph-name="e" horiz-adv-x="407" d="M293 444Q270 444 243 426T189 376T146 303T124 214Q207 238 256 267T327 327T349 385Q349 413 334 428T293 444ZM205 -13Q139 -13 97 32T54 173Q54 233 75 289T132 390T215 461T315 487Q364 487 389 463T415
395Q415 363 390 325T302 247T124 175Q127 111 154 84T227 56Q274 56 308 80T362 129L385 111Q354 60 307 24T205 -13Z" />
<glyph unicode="f" glyph-name="f" horiz-adv-x="294" d="M370 750Q414 750 445 728T483 677Q473 643 444 643Q422 643 406 656T365 698L349 717Q324 706 301 681T260 609T228 485Q227 482 227 480T226 474H355L347 421L218 425Q202 330 186 230T151 35Q135 -45
113 -104T48 -201Q17 -229 -8 -239T-58 -250Q-92 -250 -118 -233T-151 -188Q-148 -172 -135 -162T-105 -152Q-83 -152 -66 -164T-32 -193L-20 -205Q-10 -197 0 -187T21 -162Q40 -134 54 -89T82 35Q100 136 115 231T147 427H43L51 465L155 474L156 483Q169 566 194
618T251 699T314 739T370 750Z" />
<glyph unicode="g" glyph-name="g" horiz-adv-x="486" d="M239 187Q286 188 313 231T341 353Q341 401 319 428T264 455Q212 454 186 410T160 295Q160 185 239 187ZM83 290Q83 345 108 389T177 460T272 487Q320 487 353 463T396 393Q410 452 435 475T489 498Q509
498 519 492Q528 481 528 471Q528 441 503 428T429 401Q424 388 420 374T412 342Q390 245 341 200T231 155Q186 155 154 170Q138 151 134 139T129 116Q129 103 140 89T181 71L280 59Q360 49 393 21T427 -50Q427 -102 390 -145T287 -215T138 -241Q68 -241 22 -215T-25
-135Q-25 -90 12 -50T101 16Q75 29 66 47T57 82Q57 110 77 134T132 184Q83 219 83 290ZM53 -102Q53 -145 87 -169T182 -194Q262 -194 310 -165T358 -88Q358 -69 348 -53T310 -25T231 -7L151 2Q147 3 143 3T134 5Q94 -21 74 -45T53 -102Z" />
<glyph unicode="h" glyph-name="h" horiz-adv-x="544" d="M72 -8L62 0L159 477Q168 521 176 565T192 655L97 661L101 690L274 740L284 732L212 376Q260 423 316 455T418 487Q483 487 483 418Q483 394 478 370T466 320L421 135Q416 114 412 100T408 77Q408 56 428
56Q446 56 472 75T526 128L550 109Q531 80 504 52T444 5T378 -13Q354 -13 341 -1T327 30Q327 47 331 63T343 111L386 287Q392 313 397 336T402 374Q402 400 393 410T367 420Q340 420 299 399T203 333L177 210Q167 158 157 106T139 0L72 -8Z" />
<glyph unicode="i" glyph-name="i" horiz-adv-x="305" d="M90 38Q90 49 92 64T101 111L161 401L62 407L66 436L236 487L249 477L178 135Q174 116 172 101T169 78Q169 68 176 62T191 56Q227 56 287 128L312 109Q290 79 265 51T210 5T144 -13Q124 -13 107 0T90 38ZM237
623Q213 623 198 638T183 682Q183 707 201 725T242 744Q266 744 281 729T296 686Q296 662 278 643T237 623Z" />
<glyph unicode="j" glyph-name="j" horiz-adv-x="250" d="M237 623Q213 623 198 638T183 682Q183 707 201 725T242 744Q266 744 281 729T296 686Q296 662 278 643T237 623ZM-62 -248L-70 -220Q-43 -209 -24 -197T11 -166Q28 -144 42 -118T69 -52T93 48L161 401L63
407L66 436L235 487L248 477L160 23Q146 -47 116 -103T39 -199Q-8 -239 -62 -248Z" />
<glyph unicode="k" glyph-name="k" horiz-adv-x="472" d="M62 0L158 477Q167 521 175 565T191 655L96 661L100 690L273 740L279 732L189 275L455 482Q471 481 481 469T492 441Q492 428 480 416T440 389L197 255L220 250Q264 242 289 218T332 155L361 92Q378 56
392 46T429 34L480 30L475 0Q453 -7 437 -10T404 -13Q369 -13 343 1T295 67L263 145Q245 187 230 204T189 229L180 232L176 210Q166 158 157 106T138 0L71 -8L62 0Z" />
<glyph unicode="l" glyph-name="l" horiz-adv-x="279" d="M130 -13Q107 -13 91 1T74 45Q74 56 76 71T83 112L155 477Q164 521 172 565T187 655L93 661L97 690L269 740L280 732L160 137Q151 97 151 79Q151 68 158 62T176 56Q192 56 216 75T271 128L294 109Q273
80 249 52T195 5T130 -13Z" />
<glyph unicode="m" glyph-name="m" horiz-adv-x="818" d="M652 -13Q628 -13 615 -1T601 30Q601 47 605 63T617 111L660 287Q666 313 671 336T676 374Q676 400 667 410T641 420Q592 420 486 332L460 210Q448 158 438 106T418 0L353 -8L343 0L412 326Q414 339 417
352T420 377Q420 401 411 410T385 420Q358 420 317 398T220 331L193 210Q182 158 173 106T153 0L86 -8L76 0L161 401L62 407L66 436L236 487L249 477L228 374Q277 421 334 454T437 487Q500 487 500 418Q500 408 499 398T495 376Q542 422 595 454T694 487Q757 487
757 418Q757 394 752 370T740 320L695 135Q690 114 686 100T682 77Q682 67 688 62T702 56Q740 56 800 128L824 109Q803 79 777 51T719 5T652 -13Z" />
<glyph unicode="n" glyph-name="n" horiz-adv-x="563" d="M153 0L86 -8L76 0L161 401L62 407L66 436L236 487L249 477L228 374Q278 421 334 454T437 487Q501 487 501 418Q501 394 496 370T485 320L440 135Q435 114 431 100T427 77Q427 56 446 56Q465 56 491 75T545
128L569 109Q550 80 523 52T463 5T396 -13Q373 -13 360 -1T346 30Q346 47 350 63T362 111L405 287Q411 313 416 336T421 374Q421 400 412 410T386 420Q359 420 317 398T220 331L193 210Q182 158 173 106T153 0Z" />
<glyph unicode="o" glyph-name="o" horiz-adv-x="488" d="M221 -13Q175 -13 137 7T77 66T54 163Q54 231 74 289T131 392T214 462T315 487Q386 487 431 442T477 312Q477 247 457 189T402 85T320 13T221 -13ZM232 27Q269 27 299 50T350 112T384 199T396 297Q396
378 371 412T304 447Q257 447 219 410T158 312T136 175Q136 96 163 62T232 27Z" />
<glyph unicode="p" glyph-name="p" horiz-adv-x="512" d="M-58 -241L-51 -207L35 -193L161 401L62 407L66 436L236 487L249 477L225 365Q272 422 326 454T423 487Q460 487 487 460T514 364Q514 313 496 260T447 159T376 71T292 10T205 -13Q174 -13 148 2Q135 -62
126 -108T111 -192L203 -207L195 -241H-58ZM376 420Q345 420 304 393T215 316L165 83Q185 68 204 62T241 55Q279 55 312 76T372 131Q402 171 419 221T437 324Q437 420 376 420Z" />
<glyph unicode="q" glyph-name="q" horiz-adv-x="488" d="M123 147Q123 105 138 81T186 56Q212 56 249 76T336 148L389 402Q372 413 357 417T327 421Q296 421 265 405T207 362Q170 324 147 267T123 147ZM477 478L368 -39Q360 -78 353 -116T339 -193L428 -207L420
-241H167L174 -207L264 -192L325 95Q279 46 228 17T137 -13Q100 -13 74 16T47 113Q47 163 65 215T116 316T189 403T274 464T360 487Q397 487 425 463L459 488L477 478Z" />
<glyph unicode="r" glyph-name="r" horiz-adv-x="400" d="M76 0L161 401L62 407L66 436L231 487L244 477L222 343Q244 381 268 413T320 466T373 487Q394 487 412 481T440 457Q439 432 426 417T387 401Q374 401 359 408T328 427Q292 397 262 356T205 262L193 210Q182
158 173 106T153 0L86 -8L76 0Z" />
<glyph unicode="s" glyph-name="s" horiz-adv-x="360" d="M329 129Q329 67 283 27T160 -13Q102 -13 72 14T36 86Q40 99 50 106T73 114Q95 114 105 103T121 70L132 27Q135 26 138 26T146 26Q198 26 227 49T256 111Q256 135 245 157T191 210Q154 239 129 269T103
347Q103 386 123 418T178 468T262 487Q306 487 338 468T381 399Q372 371 343 371Q308 371 292 418L283 447Q280 448 277 448T269 448Q217 448 196 424T174 366Q174 335 189 315T248 262Q293 228 311 201T329 129Z" />
<glyph unicode="t" glyph-name="t" horiz-adv-x="329" d="M100 111L167 425H65L72 465L180 475L227 609H278L249 474H376L368 420L239 424L178 137Q169 97 169 79Q169 68 176 62T193 56Q231 56 291 128L316 109Q295 79 268 51T210 5T145 -13Q123 -13 107 0T90
38Q90 49 92 64T100 111Z" />
<glyph unicode="u" glyph-name="u" horiz-adv-x="572" d="M412 -13Q392 -13 376 0T359 39Q359 49 360 62T367 101Q309 48 261 18T167 -13Q139 -13 119 3T98 60Q98 88 105 122T119 186L165 402L66 407L70 437L244 487L257 477L194 194Q187 163 183 140T179 99Q179
56 217 56Q249 56 284 76T376 142L403 275Q413 323 422 371T439 467L504 487L517 477L446 135Q442 116 440 101T437 78Q437 68 444 62T460 56Q480 56 504 74T559 128L583 109Q560 79 534 51T478 5T412 -13Z" />
<glyph unicode="v" glyph-name="v" horiz-adv-x="478" d="M178 -2Q175 116 169 204T152 371Q149 401 142 409T124 418Q111 418 97 405T56 352L33 368Q86 487 159 487Q190 487 204 468T226 408Q237 341 241 254T246 80Q299 142 339 202T416 332Q417 334 417 335T419
338L412 377Q411 387 410 398T408 416Q408 454 422 470T462 487Q476 487 486 483T500 474Q505 467 505 446Q505 436 503 421T490 381T455 310Q432 266 395 213T311 104T214 -4L185 -7L178 -2Z" />
<glyph unicode="w" glyph-name="w" horiz-adv-x="729" d="M175 -2Q174 119 169 208T152 374Q149 403 142 410T124 418Q110 418 95 403T56 352L33 368Q86 487 156 487Q188 487 202 472T223 420Q230 379 234 325T240 212T242 97Q297 177 348 271T446 475H487Q487
469 488 436T492 353T495 252T498 155T501 87Q552 150 590 206T665 331Q667 333 668 335T670 340L662 375Q660 384 659 396T657 416Q657 454 675 470T717 487Q740 486 750 474Q756 465 756 444Q756 434 753 419T739 379T705 310Q670 242 609 159T471 -4L442 -7L435
-2Q434 12 432 51T428 139T423 235T419 314Q393 266 360 210T290 98T212 -4L182 -7L175 -2Z" />
<glyph unicode="x" glyph-name="x" horiz-adv-x="519" d="M-5 58Q-1 76 12 85T38 94Q54 94 65 88T89 58L100 38Q109 45 119 56Q155 95 186 136T248 223L206 366Q197 397 190 408T166 420Q156 420 137 408T91 352L68 369Q96 431 129 459T193 487Q222 487 239 468T270
401L301 290Q333 341 361 380T409 442Q431 468 449 477T491 487Q511 487 531 474T558 434Q558 413 546 400T517 386Q502 386 489 392T462 420L456 428Q452 425 449 421T442 413Q407 374 375 333T313 249L348 122Q359 81 371 69T405 56Q425 56 449 75T501 128L526
109Q490 56 448 22T366 -13Q344 -13 327 1T297 59L260 183Q229 133 201 93T147 21Q131 2 114 -5T77 -13Q47 -13 23 4T-5 58Z" />
<glyph unicode="y" glyph-name="y" horiz-adv-x="476" d="M-82 -182Q-78 -160 -64 -149T-28 -137Q-6 -137 12 -146T53 -172L56 -174Q105 -143 146 -101Q160 -87 173 -72T199 -41Q195 18 190 64T178 161T162 277Q155 341 150 370T138 409T123 418Q110 418 97 406T56
352L33 368Q63 432 96 459T160 487Q179 487 192 477T215 439T231 354Q240 267 245 190T254 43Q289 107 313 156T356 252T391 357Q408 415 419 444T442 483T467 493Q484 493 494 484T504 459Q504 440 499 424T479 378Q463 346 446 312T399 226Q371 177 339 120T265
0Q246 -29 224 -60T171 -126Q122 -179 78 -209T-11 -240Q-44 -240 -62 -224T-82 -182Z" />
<glyph unicode="z" glyph-name="z" horiz-adv-x="462" d="M68 283L91 432L160 487Q222 471 279 453T397 408L431 474L486 486L498 476Q491 457 467 425T403 353Q340 289 275 233T147 118Q205 75 246 61T318 46Q339 46 357 52T392 68Q376 87 369 100T362 127Q362
151 376 165T412 181Q428 175 436 158T445 122Q445 86 421 53T361 -2T285 -23Q242 -23 203 -1T113 83L73 0L15 -6L7 0Q22 26 40 51T89 107Q154 170 222 230T357 358Q305 375 258 387T151 413L109 277L68 283Z" />
<glyph unicode="{" glyph-name="braceleft" horiz-adv-x="379" d="M67 258L76 298Q148 307 177 338T207 420Q207 445 200 480T192 552Q192 632 237 673T385 715H424L417 676L394 675Q340 673 311 660T272 619T261 547Q261 527 262 502T263 452T264 412Q264 360
232 325T148 278Q184 270 200 248T217 193Q217 172 210 139T194 68T177 -3T170 -60Q170 -88 190 -100T253 -117L286 -120L278 -159H227Q101 -159 101 -68Q101 -35 111 -1T134 66T157 130T167 184Q167 214 144 232T67 258Z" />
<glyph unicode="|" glyph-name="bar" horiz-adv-x="251" d="M113 -250V750H170V-250H113Z" />
<glyph unicode="}" glyph-name="braceright" horiz-adv-x="379" d="M356 298L347 258Q275 249 246 218T216 136Q216 111 223 76T231 4Q231 -76 186 -117T38 -159H-1L6 -120L29 -119Q84 -116 112 -103T151 -63T162 9Q162 29 162 54T160 104T159 144Q159 197 191
232T275 278Q239 286 223 308T206 363Q206 384 213 417T229 488T246 559T253 616Q253 645 233 657T170 673L137 676L145 715H196Q322 715 322 624Q322 591 312 557T289 490T266 426T256 372Q256 342 280 324T356 298Z" />
<glyph unicode="~" glyph-name="asciitilde" horiz-adv-x="530" d="M299 365Q322 344 340 335T378 326Q398 326 415 344T438 412L485 404Q481 340 453 307T372 273Q343 273 318 286T264 325Q242 346 224 355T185 364Q166 364 149 346T126 278L79 286Q84 350 111
383T191 417Q220 417 245 404T299 365Z" />
<glyph unicode="&#xa0;" glyph-name="space" horiz-adv-x="234" />
<glyph unicode="&#xa1;" glyph-name="exclamdown" horiz-adv-x="290" d="M184 278L165 121Q155 20 148 -45T136 -131Q127 -177 110 -192T72 -208Q27 -208 27 -162Q27 -144 33 -117T53 -43T91 82T151 278H184ZM259 430Q259 401 238 381T189 360Q163 360 148 377T132
420Q132 448 153 468T203 488Q226 488 242 472T259 430Z" />
<glyph unicode="&#xa2;" glyph-name="cent" horiz-adv-x="511" d="M234 -45H198L219 58Q160 63 123 109T85 244Q85 305 105 360T159 458T235 527T320 557L341 660H378L357 555Q407 549 442 517T477 428Q477 401 465 390T438 379Q395 379 391 440L386 501Q377 504
368 506T347 510L269 126Q313 128 343 151T393 199L416 181Q389 133 346 100T255 59L234 -45ZM159 254Q159 201 180 170T233 130L311 511Q272 506 237 470T181 376T159 254Z" />
<glyph unicode="&#xa3;" glyph-name="sterling" horiz-adv-x="511" d="M3 0L16 58Q84 102 127 159T178 284H67L78 334H175Q170 356 159 377T140 423T131 478Q131 527 157 568T229 634T335 660Q414 660 456 620T499 500Q482 469 454 469Q431 469 419 483T404 536Q403
555 402 573T398 610Q386 612 375 613T352 614Q309 614 279 594T234 542T218 474Q218 423 228 393T242 334H384L374 284H242Q235 227 197 175T100 81H429L413 0H3Z" />
<glyph unicode="&#xa4;" glyph-name="currency" horiz-adv-x="511" d="M180 329Q180 280 212 249T288 217Q332 217 364 248T396 329Q396 379 364 410T288 441Q244 441 212 410T180 329ZM123 329Q123 391 161 434L124 456Q90 476 79 488T67 514Q67 529 77 540T103
551Q116 551 129 539T161 493L183 456Q229 491 288 491Q347 491 393 456L415 493Q435 527 448 539T474 551Q489 551 499 540T510 514Q510 501 499 489T453 456L416 434Q433 414 443 388T453 329Q453 298 443 271T416 224L453 202Q487 182 498 170T510 143Q510 128
500 118T474 107Q461 107 448 119T415 165L393 202Q348 166 288 166Q228 166 183 202L161 165Q142 131 129 119T103 107Q88 107 78 117T67 143Q67 157 78 169T124 202L160 224Q143 244 133 271T123 329Z" />
<glyph unicode="&#xa5;" glyph-name="yen" horiz-adv-x="511" d="M42 143L52 193H212L228 270H68L78 320H220L137 598L65 608L73 647H309L301 608L219 597L291 329L458 598L392 608L400 647H588L580 608L509 596L333 320H475L464 270H303Q299 248 295 229T287
193H449L438 143H278Q272 115 268 93T260 50L358 39L350 0H66L74 39L183 50L202 143H42Z" />
<glyph unicode="&#xa6;" glyph-name="brokenbar" horiz-adv-x="251" d="M113 -250V200H170V-250H113ZM170 320H113V750H170V320Z" />
<glyph unicode="&#xa7;" glyph-name="section" horiz-adv-x="465" d="M341 686Q391 686 424 666T468 597Q459 570 429 570Q394 570 379 616L368 650Q364 651 355 651Q303 651 280 625T256 564Q256 542 263 527T288 497T333 461L381 425Q419 397 437 370T455 298Q455
240 411 199T279 148Q317 119 331 95T345 30Q345 -31 299 -71T177 -111Q122 -111 90 -85T53 -16Q57 -4 67 3T89 11Q110 11 121 0T137 -32L147 -74Q150 -75 154 -75T162 -75Q215 -75 246 -50T277 16Q277 40 265 61T212 111L164 147Q126 176 102 206T77 285Q77 340
119 385T247 440Q223 460 206 484T189 546Q189 585 208 616T261 667T341 686ZM213 197L243 175Q320 180 354 209T389 278Q389 306 378 327T329 377L281 413Q202 408 171 375T140 300Q140 270 156 249T213 197Z" />
<glyph unicode="&#xa8;" glyph-name="dieresis" horiz-adv-x="400" d="M197 624Q178 624 165 636T151 670Q151 696 168 711T207 727Q227 727 239 715T252 683Q252 657 236 641T197 624ZM390 624Q373 624 360 636T346 670Q346 696 363 711T400 727Q420 727 433
715T446 683Q446 657 430 641T390 624Z" />
<glyph unicode="&#xa9;" glyph-name="copyright" horiz-adv-x="776" d="M392 24Q458 24 517 47T623 116T697 225T724 371Q724 457 690 518T595 612T458 645Q392 645 333 622T226 553T152 444T125 299Q125 212 159 151T254 57T392 24ZM396 -15Q303 -15 231 21T117
127T75 294Q75 386 106 458T190 581T312 658T454 685Q547 685 619 648T733 542T775 375Q775 283 744 211T659 89T538 12T396 -15ZM420 135Q371 135 332 157T271 220T249 314Q249 379 277 430T356 511T469 541Q497 541 521 535T572 510L559 420H517V496Q491 504
464 504Q416 504 382 479T329 413T311 320Q311 244 347 208T431 172Q452 172 473 178L496 254H540L524 161Q501 151 476 143T420 135Z" />
<glyph unicode="&#xaa;" glyph-name="ordfeminine" horiz-adv-x="368" d="M173 530Q173 499 184 485T214 471Q231 471 252 483T304 522L341 693Q321 704 299 704Q272 704 243 681T193 619T173 530ZM335 416Q319 416 308 427T297 464Q297 469 297 474T298 484Q269
453 238 435T178 416Q153 416 132 435T111 500Q111 544 131 588T183 668T253 727T324 750Q350 750 369 731L402 755L414 747L361 516Q358 505 357 496T356 482Q356 468 372 468Q384 468 400 480T434 513L452 500Q432 470 401 443T335 416Z" />
<glyph unicode="&#xab;" glyph-name="guillemotleft" horiz-adv-x="553" d="M251 50L74 226L83 279L309 455L331 424L147 253L279 78L251 50ZM454 50L277 226L286 279L512 455L534 424L350 253L482 78L454 50Z" />
<glyph unicode="&#xac;" glyph-name="logicalnot" horiz-adv-x="530" d="M54 339V393H498V167H441V339H54Z" />
<glyph unicode="&#xad;" glyph-name="hyphen" horiz-adv-x="311" d="M56 219V283H287V219H56Z" />
<glyph unicode="&#xae;" glyph-name="registered" horiz-adv-x="463" d="M286 347Q333 347 373 369T439 434T464 535Q464 604 424 643T324 682Q277 682 236 660T170 595T145 494Q145 424 185 386T286 347ZM288 317Q209 317 158 363T107 492Q107 561 137 610T217
685T321 712Q400 712 451 666T502 538Q502 469 472 420T393 344T288 317ZM328 603H306L290 525H307Q330 525 341 537T353 571Q353 603 328 603ZM239 605L242 620H329Q358 620 374 608T391 569Q391 523 333 513Q350 506 359 480L374 437L401 434L398 419Q388 417
382 417T367 416Q351 416 344 421T331 442L318 482Q314 497 310 502T295 508H286L272 437L296 434L293 419H201L204 434L231 437L264 602L239 605Z" />
<glyph unicode="&#xaf;" glyph-name="overscore" horiz-adv-x="400" d="M172 613L185 674H426L414 613H172Z" />
<glyph unicode="&#xb0;" glyph-name="degree" horiz-adv-x="328" d="M245 464Q281 464 305 490T330 556Q330 595 306 622T245 649Q209 649 185 622T160 556Q160 517 184 491T245 464ZM245 428Q193 428 156 462T118 556Q118 615 155 650T245 685Q297 685 334 650T372
556Q372 497 335 463T245 428Z" />
<glyph unicode="&#xb1;" glyph-name="plusminus" horiz-adv-x="530" d="M503 0H59V53H503V0ZM253 112V304H59V357H253V544H309V357H503V304H309V112H253Z" />
<glyph unicode="&#xb2;" glyph-name="two.sups" horiz-adv-x="347" d="M101 426L110 473Q181 536 224 578T290 648T321 696T329 734Q329 799 265 799Q242 799 222 790L219 748Q217 717 207 706T180 694Q152 694 149 726Q163 784 199 807T291 831Q347 831 373 805T400
737Q400 713 389 692T351 644T279 580T167 488H366L353 426H101Z" />
<glyph unicode="&#xb3;" glyph-name="three.sups" horiz-adv-x="347" d="M223 417Q171 417 140 442T109 522Q119 545 140 545Q155 545 163 535T173 499L174 453Q192 447 214 447Q250 447 277 469T305 538Q305 575 282 592T208 610L213 641Q266 641 298 664T330
735Q330 770 313 785T268 801Q249 801 231 795L225 754Q219 714 189 714Q166 714 159 735Q165 781 198 806T284 831Q341 831 368 804T396 738Q396 699 368 670T290 627Q377 610 377 533Q377 479 333 448T223 417Z" />
<glyph unicode="&#xb4;" glyph-name="acute" horiz-adv-x="400" d="M220 549Q239 591 257 633T294 717Q304 737 316 748T345 760Q361 760 372 751T384 725Q384 702 362 676Q332 640 303 605T243 534L220 549Z" />
<glyph unicode="&#xb5;" glyph-name="mu" horiz-adv-x="529" d="M416 -13Q385 -13 368 7T351 65Q351 74 354 98Q318 43 277 15T202 -13Q143 -13 120 48L92 -173L13 -188L2 -180L82 101L142 469L224 487L232 477Q208 378 192 312T165 201T146 115Q157 87 177 75T221
63Q256 63 292 84T362 150Q366 167 370 190T380 243L423 469L505 487L513 477L480 355Q449 245 436 185T423 93Q423 55 452 55Q465 55 479 63T509 84L525 61Q497 26 470 7T416 -13Z" />
<glyph unicode="&#xb6;" glyph-name="paragraph" horiz-adv-x="597" d="M360 -130L499 623H432L344 150Q272 161 216 188T129 261T97 372Q97 462 138 529T261 633T467 670H676L669 629L572 618L491 180Q477 103 463 25T437 -130H360Z" />
<glyph unicode="&#xb7;" glyph-name="middot" horiz-adv-x="300" d="M182 263Q157 263 140 279T123 320Q123 350 144 369T194 389Q220 389 236 372T252 332Q252 302 232 283T182 263Z" />
<glyph unicode="&#xb8;" glyph-name="cedilla" horiz-adv-x="400" d="M95 -87L138 0H166L134 -69Q180 -85 203 -104T226 -157Q226 -187 199 -209T123 -231Q98 -231 74 -225T34 -208L45 -183Q62 -190 77 -194T111 -199Q137 -199 153 -187T169 -152Q169 -124 150
-110T95 -87Z" />
<glyph unicode="&#xb9;" glyph-name="one.sups" horiz-adv-x="347" d="M346 426H111L117 452L198 461L261 775L183 770L189 796L337 831L344 825L323 736L266 462L351 452L346 426Z" />
<glyph unicode="&#xba;" glyph-name="ordmasculine" horiz-adv-x="345" d="M234 416Q185 416 151 446T116 537Q116 595 140 643T206 720T297 750Q347 750 379 720T412 630Q412 574 388 525T324 446T234 416ZM242 447Q275 447 299 474T337 545T351 633Q351 681
333 699T289 718Q257 718 232 691T193 622T179 532Q179 485 197 466T242 447Z" />
<glyph unicode="&#xbb;" glyph-name="guillemotright" horiz-adv-x="553" d="M335 455L512 279L503 226L277 50L255 81L439 252L307 427L335 455ZM132 455L309 279L300 226L74 50L52 81L236 252L104 427L132 455Z" />
<glyph unicode="&#xbc;" glyph-name="onequarter" horiz-adv-x="870" d="M250 -15L216 10L713 666L746 640L250 -15ZM309 254H74L80 280L161 289L224 603L146 598L152 624L300 659L307 653L286 564L229 290L314 280L309 254ZM815 98H749L726 -13H664L687 98H513L522
144L760 401H810L758 146H824L815 98ZM561 146H697L735 335L561 146Z" />
<glyph unicode="&#xbd;" glyph-name="onehalf" horiz-adv-x="870" d="M230 -15L196 10L693 666L726 640L230 -15ZM309 254H74L80 280L161 289L224 603L146 598L152 624L300 659L307 653L286 564L229 290L314 280L309 254ZM534 0L543 47Q614 110 657 152T723 222T754
270T762 308Q762 373 698 373Q675 373 655 364L652 322Q650 291 640 280T613 268Q585 268 582 300Q596 358 632 381T724 405Q780 405 806 379T833 311Q833 287 822 266T784 218T712 154T600 62H799L786 0H534Z" />
<glyph unicode="&#xbe;" glyph-name="threequarters" horiz-adv-x="870" d="M260 -15L226 10L723 666L756 640L260 -15ZM186 245Q134 245 103 270T72 350Q82 373 103 373Q118 373 126 363T136 327L137 281Q155 275 177 275Q213 275 240 297T268 366Q268 403 245
420T171 438L176 469Q229 469 261 492T293 563Q293 598 276 613T231 629Q212 629 194 623L188 582Q182 542 152 542Q129 542 122 563Q128 609 161 634T247 659Q304 659 331 632T359 566Q359 527 331 498T253 455Q340 438 340 361Q340 307 296 276T186 245ZM815
98H749L726 -13H664L687 98H513L522 144L760 401H810L758 146H824L815 98ZM561 146H697L735 335L561 146Z" />
<glyph unicode="&#xbf;" glyph-name="questiondown" horiz-adv-x="444" d="M395 431Q395 403 374 382T327 361Q300 361 285 378T269 421Q269 449 289 469T335 489Q361 489 378 473T395 431ZM338 292Q334 221 327 186T299 130Q290 120 278 109T242 81T171 36Q113
2 91 -30T69 -94Q69 -130 93 -149T161 -169Q177 -169 190 -168T213 -165L244 -90Q253 -69 264 -59T296 -49Q312 -49 322 -60T333 -88Q326 -118 305 -145T246 -191T153 -209Q86 -209 43 -179T-1 -86Q-1 -50 12 -23T57 31T141 91Q185 118 208 133T243 158T261 173Q278
190 286 215T303 297L338 292Z" />
<glyph unicode="&#xc0;" glyph-name="Agrave" horiz-adv-x="676" d="M-29 0L-21 40L62 52L405 670H463L551 51L639 40L631 0H366L374 40L461 50L435 243H217L116 53L203 40L195 0H-29ZM241 289H429L391 572L241 289ZM480 746L462 721Q431 738 400 755T337 788Q309
803 298 817T287 844Q287 859 298 868T325 877Q338 877 352 869T387 839Q435 793 480 746Z" />
<glyph unicode="&#xc1;" glyph-name="Aacute" horiz-adv-x="676" d="M-29 0L-21 40L62 52L405 670H463L551 51L639 40L631 0H366L374 40L461 50L435 243H217L116 53L203 40L195 0H-29ZM241 289H429L391 572L241 289ZM397 735Q426 759 454 782T510 830Q535 850
547 858T578 867Q593 867 604 858T615 833Q615 820 606 808T561 778Q524 762 486 746T410 713L397 735Z" />
<glyph unicode="&#xc2;" glyph-name="Acircumflex" horiz-adv-x="676" d="M-29 0L-21 40L62 52L405 670H463L551 51L639 40L631 0H366L374 40L461 50L435 243H217L116 53L203 40L195 0H-29ZM241 289H429L391 572L241 289ZM473 856L592 736L568 712L447 794L303
712L289 736L441 856H473Z" />
<glyph unicode="&#xc3;" glyph-name="Atilde" horiz-adv-x="676" d="M-29 0L-21 40L62 52L405 670H463L551 51L639 40L631 0H366L374 40L461 50L435 243H217L116 53L203 40L195 0H-29ZM241 289H429L391 572L241 289ZM262 735Q300 863 390 863Q418 863 434 853T465
829Q482 813 496 797T532 780Q558 780 577 798T616 861L644 852Q623 786 593 755T516 724Q488 724 471 734T440 757Q424 773 410 789T373 806Q348 806 329 788T289 725L262 735Z" />
<glyph unicode="&#xc4;" glyph-name="Adieresis" horiz-adv-x="676" d="M-29 0L-21 40L62 52L405 670H463L551 51L639 40L631 0H366L374 40L461 50L435 243H217L116 53L203 40L195 0H-29ZM241 289H429L391 572L241 289ZM321 748Q303 748 289 760T275 793Q275 819
292 835T331 851Q351 851 363 839T376 807Q376 781 360 765T321 748ZM539 748Q523 748 510 760T496 793Q496 819 512 835T550 851Q570 851 583 839T596 807Q596 781 579 765T539 748Z" />
<glyph unicode="&#xc5;" glyph-name="Aring" horiz-adv-x="676" d="M-29 0L-21 40L62 52L405 670H463L551 51L639 40L631 0H366L374 40L461 50L435 243H217L116 53L203 40L195 0H-29ZM241 289H429L391 572L241 289ZM442 713Q406 713 380 735T353 795Q353 828 369
851T409 886T458 898Q496 898 521 877T546 816Q546 768 514 741T442 713ZM446 746Q473 746 489 766T505 813Q505 833 494 849T457 865Q431 865 413 846T394 799Q394 777 407 762T446 746Z" />
<glyph unicode="&#xc6;" glyph-name="AE" horiz-adv-x="880" d="M462 360Q474 423 485 486T506 614H501L278 289H449L462 360ZM-38 0L-30 40L59 52L453 618L364 629L372 670H886L862 492H811V619H595L547 365H701L735 461H778L733 224H690L693 319H539L537 310Q525
246 514 181T492 50H752L797 178H848L809 0H309L317 40L404 51L440 243H246L115 52L194 40L186 0H-38Z" />
<glyph unicode="&#xc7;" glyph-name="Ccedilla" horiz-adv-x="593" d="M330 -15Q246 -15 185 22T91 125T58 281Q58 364 88 437T170 566T292 653T440 685Q480 685 521 674T609 632L586 492H529V615Q483 635 431 635Q371 635 320 607T230 531T170 419T149 285Q149
201 178 146T257 63T363 35Q386 35 408 39T452 50L493 175H553L525 30Q485 13 440 -1T330 -15ZM270 -87L313 0H341L309 -69Q355 -85 378 -104T401 -157Q401 -187 374 -209T298 -231Q273 -231 249 -225T209 -208L220 -183Q237 -190 252 -194T286 -199Q312 -199 328
-187T344 -152Q344 -124 325 -110T270 -87Z" />
<glyph unicode="&#xc8;" glyph-name="Egrave" horiz-adv-x="587" d="M122 629L130 670H592L568 492H518V619H301L253 365H408L442 461H484L439 224H397L400 319H245L243 310Q231 246 220 181T198 50H458L503 178H554L515 0H16L24 40L110 51L168 360Q192 489 213
618L122 629ZM437 746L419 721Q388 738 357 755T294 788Q266 803 255 817T244 844Q244 859 255 868T282 877Q295 877 309 869T344 839Q392 793 437 746Z" />
<glyph unicode="&#xc9;" glyph-name="Eacute" horiz-adv-x="587" d="M122 629L130 670H592L568 492H518V619H301L253 365H408L442 461H484L439 224H397L400 319H245L243 310Q231 246 220 181T198 50H458L503 178H554L515 0H16L24 40L110 51L168 360Q192 489 213
618L122 629ZM369 735Q398 759 426 782T482 830Q507 850 519 858T550 867Q565 867 576 858T587 833Q587 820 578 808T533 778Q496 762 458 746T382 713L369 735Z" />
<glyph unicode="&#xca;" glyph-name="Ecircumflex" horiz-adv-x="587" d="M122 629L130 670H592L568 492H518V619H301L253 365H408L442 461H484L439 224H397L400 319H245L243 310Q231 246 220 181T198 50H458L503 178H554L515 0H16L24 40L110 51L168 360Q192 489
213 618L122 629ZM441 856L560 736L536 712L415 794L271 712L257 736L409 856H441Z" />
<glyph unicode="&#xcb;" glyph-name="Edieresis" horiz-adv-x="587" d="M122 629L130 670H592L568 492H518V619H301L253 365H408L442 461H484L439 224H397L400 319H245L243 310Q231 246 220 181T198 50H458L503 178H554L515 0H16L24 40L110 51L168 360Q192 489
213 618L122 629ZM295 748Q277 748 263 760T249 793Q249 819 266 835T305 851Q325 851 337 839T350 807Q350 781 334 765T295 748ZM513 748Q497 748 484 760T470 793Q470 819 486 835T524 851Q544 851 557 839T570 807Q570 781 553 765T513 748Z" />
<glyph unicode="&#xcc;" glyph-name="Igrave" horiz-adv-x="358" d="M122 629L130 670H395L387 629L301 619L243 310Q231 246 220 181T198 51L289 40L281 0H16L24 40L109 50L168 360Q192 489 213 618L122 629ZM320 746L302 721Q271 738 240 755T177 788Q149 803
138 817T127 844Q127 859 138 868T165 877Q178 877 192 869T227 839Q275 793 320 746Z" />
<glyph unicode="&#xcd;" glyph-name="Iacute" horiz-adv-x="358" d="M122 629L130 670H395L387 629L301 619L243 310Q231 246 220 181T198 51L289 40L281 0H16L24 40L109 50L168 360Q192 489 213 618L122 629ZM224 735Q253 759 281 782T337 830Q362 850 374 858T405
867Q420 867 431 858T442 833Q442 820 433 808T388 778Q351 762 313 746T237 713L224 735Z" />
<glyph unicode="&#xce;" glyph-name="Icircumflex" horiz-adv-x="358" d="M122 629L130 670H395L387 629L301 619L243 310Q231 246 220 181T198 51L289 40L281 0H16L24 40L109 50L168 360Q192 489 213 618L122 629ZM311 861L430 741L406 717L285 799L141 717L127
741L279 861H311Z" />
<glyph unicode="&#xcf;" glyph-name="Idieresis" horiz-adv-x="358" d="M189 748Q171 748 158 760T144 793Q144 819 161 835T199 851Q219 851 232 839T245 807Q245 781 229 765T189 748ZM367 748Q351 748 338 760T324 793Q324 819 340 835T378 851Q398 851 411
839T424 807Q424 781 408 765T367 748ZM122 629L130 670H395L387 629L301 619L243 310Q231 246 220 181T198 51L289 40L281 0H16L24 40L109 50L168 360Q192 489 213 618L122 629Z" />
<glyph unicode="&#xd0;" glyph-name="Eth" horiz-adv-x="701" d="M122 629L130 670H404Q490 670 553 637T650 542T685 394Q685 295 652 221T563 98T437 25T290 0H16L24 40L110 51L160 320H58L66 366H169Q180 429 191 492T213 618L122 629ZM398 320H245L243 310Q231
244 220 178T197 46H304Q376 46 429 76T518 157T572 270T590 394Q591 506 531 564T363 623H302L254 366H406L398 320Z" />
<glyph unicode="&#xd1;" glyph-name="Ntilde" horiz-adv-x="727" d="M548 629L556 670H792L784 629L704 616L588 -10H557L242 547L148 53L248 40L242 0H9L18 40L100 52L205 612L201 619L116 629L125 670H278L569 146L655 616L548 629ZM299 735Q337 863 427 863Q455
863 471 853T502 829Q519 813 533 797T569 780Q595 780 614 798T653 861L681 852Q660 786 630 755T553 724Q525 724 508 734T477 757Q461 773 447 789T410 806Q385 806 366 788T326 725L299 735Z" />
<glyph unicode="&#xd2;" glyph-name="Ograve" horiz-adv-x="660" d="M305 -14Q233 -14 180 19T96 113T66 259Q66 346 91 423T162 558T271 650T412 684Q486 684 540 651T624 555T654 409Q654 323 629 247T558 112T448 20T305 -14ZM319 36Q393 36 448 85T534 220T565
411Q565 513 526 573T400 634Q327 634 272 585T186 450T155 257Q155 158 194 97T319 36ZM469 746L451 721Q420 738 389 755T326 788Q298 803 287 817T276 844Q276 859 287 868T314 877Q327 877 341 869T376 839Q424 793 469 746Z" />
<glyph unicode="&#xd3;" glyph-name="Oacute" horiz-adv-x="660" d="M305 -14Q233 -14 180 19T96 113T66 259Q66 346 91 423T162 558T271 650T412 684Q486 684 540 651T624 555T654 409Q654 323 629 247T558 112T448 20T305 -14ZM319 36Q393 36 448 85T534 220T565
411Q565 513 526 573T400 634Q327 634 272 585T186 450T155 257Q155 158 194 97T319 36ZM403 735Q432 759 460 782T516 830Q541 850 553 858T584 867Q599 867 610 858T621 833Q621 820 612 808T567 778Q530 762 492 746T416 713L403 735Z" />
<glyph unicode="&#xd4;" glyph-name="Ocircumflex" horiz-adv-x="660" d="M305 -14Q233 -14 180 19T96 113T66 259Q66 346 91 423T162 558T271 650T412 684Q486 684 540 651T624 555T654 409Q654 323 629 247T558 112T448 20T305 -14ZM319 36Q393 36 448 85T534
220T565 411Q565 513 526 573T400 634Q327 634 272 585T186 450T155 257Q155 158 194 97T319 36ZM464 861L583 741L559 717L438 799L294 717L280 741L432 861H464Z" />
<glyph unicode="&#xd5;" glyph-name="Otilde" horiz-adv-x="660" d="M305 -14Q233 -14 180 19T96 113T66 259Q66 346 91 423T162 558T271 650T412 684Q486 684 540 651T624 555T654 409Q654 323 629 247T558 112T448 20T305 -14ZM319 36Q393 36 448 85T534 220T565
411Q565 513 526 573T400 634Q327 634 272 585T186 450T155 257Q155 158 194 97T319 36ZM243 735Q281 863 371 863Q399 863 415 853T446 829Q463 813 477 797T513 780Q539 780 558 798T597 861L625 852Q604 786 574 755T497 724Q469 724 452 734T421 757Q405 773
391 789T354 806Q329 806 310 788T270 725L243 735Z" />
<glyph unicode="&#xd6;" glyph-name="Odieresis" horiz-adv-x="660" d="M305 -14Q233 -14 180 19T96 113T66 259Q66 346 91 423T162 558T271 650T412 684Q486 684 540 651T624 555T654 409Q654 323 629 247T558 112T448 20T305 -14ZM319 36Q393 36 448 85T534
220T565 411Q565 513 526 573T400 634Q327 634 272 585T186 450T155 257Q155 158 194 97T319 36ZM311 748Q293 748 279 760T265 793Q265 819 282 835T321 851Q341 851 353 839T366 807Q366 781 350 765T311 748ZM529 748Q513 748 500 760T486 793Q486 819 502 835T540
851Q560 851 573 839T586 807Q586 781 569 765T529 748Z" />
<glyph unicode="&#xd7;" glyph-name="multiply" horiz-adv-x="530" d="M452 121L282 292L111 121L72 159L243 330L72 501L111 539L282 368L452 539L491 501L320 330L491 159L452 121Z" />
<glyph unicode="&#xd8;" glyph-name="Oslash" horiz-adv-x="660" d="M691 657L612 575Q654 505 654 409Q654 323 628 247T554 112T442 20T302 -14Q190 -14 126 65L44 -20L7 13L98 108Q66 172 66 259Q66 346 92 423T166 558T277 650T415 684Q467 684 509 666T582
615L654 690L691 657ZM152 264Q152 239 154 216T160 173L537 567Q498 635 405 635Q352 635 306 607T226 528T172 410T152 264ZM314 35Q368 35 414 63T494 142T548 260T568 405Q568 471 556 516L177 119Q214 35 314 35Z" />
<glyph unicode="&#xd9;" glyph-name="Ugrave" horiz-adv-x="712" d="M528 629L536 670H778L770 629L684 617L619 274Q599 168 559 105T460 13T328 -15Q227 -15 174 35T120 179Q120 204 124 231T133 286L147 360Q171 489 192 618L100 629L108 670H373L365 629L278
618L216 282Q212 263 209 242T205 185Q205 122 244 89T339 55Q409 55 453 76T524 150T570 298L631 616L528 629ZM515 746L497 721Q466 738 435 755T372 788Q344 803 333 817T322 844Q322 859 333 868T360 877Q373 877 387 869T422 839Q470 793 515 746Z" />
<glyph unicode="&#xda;" glyph-name="Uacute" horiz-adv-x="712" d="M528 629L536 670H778L770 629L684 617L619 274Q599 168 559 105T460 13T328 -15Q227 -15 174 35T120 179Q120 204 124 231T133 286L147 360Q171 489 192 618L100 629L108 670H373L365 629L278
618L216 282Q212 263 209 242T205 185Q205 122 244 89T339 55Q409 55 453 76T524 150T570 298L631 616L528 629ZM456 735Q485 759 513 782T569 830Q594 850 606 858T637 867Q652 867 663 858T674 833Q674 820 665 808T620 778Q583 762 545 746T469 713L456 735Z"
/>
<glyph unicode="&#xdb;" glyph-name="Ucircumflex" horiz-adv-x="712" d="M528 629L536 670H778L770 629L684 617L619 274Q599 168 559 105T460 13T328 -15Q227 -15 174 35T120 179Q120 204 124 231T133 286L147 360Q171 489 192 618L100 629L108 670H373L365
629L278 618L216 282Q212 263 209 242T205 185Q205 122 244 89T339 55Q409 55 453 76T524 150T570 298L631 616L528 629ZM529 861L648 741L624 717L503 799L359 717L345 741L497 861H529Z" />
<glyph unicode="&#xdc;" glyph-name="Udieresis" horiz-adv-x="712" d="M528 629L536 670H778L770 629L684 617L619 274Q599 168 559 105T460 13T328 -15Q227 -15 174 35T120 179Q120 204 124 231T133 286L147 360Q171 489 192 618L100 629L108 670H373L365 629L278
618L216 282Q212 263 209 242T205 185Q205 122 244 89T339 55Q409 55 453 76T524 150T570 298L631 616L528 629ZM366 748Q348 748 334 760T320 793Q320 819 337 835T376 851Q396 851 408 839T421 807Q421 781 405 765T366 748ZM584 748Q568 748 555 760T541 793Q541
819 557 835T595 851Q615 851 628 839T641 807Q641 781 624 765T584 748Z" />
<glyph unicode="&#xdd;" glyph-name="Yacute" horiz-adv-x="554" d="M62 629L70 670H335L327 629L239 618L330 329L516 616L432 629L440 670H663L655 629L565 616L343 278Q333 222 323 165T304 52L405 40L397 0H112L120 40L216 50L259 280L142 619L62 629ZM356
735Q385 759 413 782T469 830Q494 850 506 858T537 867Q552 867 563 858T574 833Q574 820 565 808T520 778Q483 762 445 746T369 713L356 735Z" />
<glyph unicode="&#xde;" glyph-name="Thorn" horiz-adv-x="562" d="M243 310Q238 283 233 256T223 201H281Q378 201 425 246T473 363Q473 426 437 457T322 489H277L243 310ZM122 629L130 670H395L387 629L301 619L286 535H329Q447 535 505 489T564 365Q564 303
530 256T430 182T273 155H215Q211 129 207 103T198 51L289 40L281 0H16L24 40L109 50L168 360Q192 489 213 618L122 629Z" />
<glyph unicode="&#xdf;" glyph-name="germandbls" horiz-adv-x="505" d="M82 35Q102 149 119 257T155 483Q178 622 244 686T401 751Q464 751 499 720T534 639Q534 589 504 553T426 481Q389 455 371 429T353 367Q353 335 368 312T417 262Q448 239 466 220T491 178T499
125Q499 66 453 27T332 -13Q274 -13 243 11T207 81Q211 93 221 101T244 109Q265 109 276 98T291 65L301 23Q305 22 309 22T317 22Q370 22 400 47T431 113Q431 137 420 158T367 208Q330 235 309 268T288 340Q288 390 318 428T399 510Q438 544 452 573T467 630Q467
673 445 695T390 717Q321 717 284 659T227 485Q208 377 191 261T151 35Q135 -45 113 -104T48 -201Q17 -229 -8 -239T-58 -250Q-92 -250 -118 -233T-151 -188Q-148 -172 -135 -162T-105 -152Q-83 -152 -66 -164T-33 -193L-20 -205Q-10 -197 0 -187T20 -162Q40 -134
54 -89T82 35Z" />
<glyph unicode="&#xe0;" glyph-name="agrave" horiz-adv-x="522" d="M123 146Q123 100 139 78T183 56Q209 56 243 77T326 152L380 402Q366 410 351 415T319 421Q295 421 266 406T209 363Q173 326 148 269T123 146ZM363 -13Q343 -13 327 1T311 45Q311 74 315 98Q272
49 227 18T140 -13Q104 -13 75 15T45 105Q45 157 64 211T116 314T189 403T272 464T354 487Q371 487 385 480T411 460L457 497L475 488L395 135Q386 98 386 78Q386 68 393 62T410 56Q429 56 455 76T508 128L532 109Q513 80 486 52T428 6T363 -13ZM405 549L382 534Q352
570 323 605T263 676Q251 690 247 702T242 727Q242 743 253 752T280 762Q297 762 309 750T331 717Q350 675 368 633T405 549Z" />
<glyph unicode="&#xe1;" glyph-name="aacute" horiz-adv-x="522" d="M123 146Q123 100 139 78T183 56Q209 56 243 77T326 152L380 402Q366 410 351 415T319 421Q295 421 266 406T209 363Q173 326 148 269T123 146ZM363 -13Q343 -13 327 1T311 45Q311 74 315 98Q272
49 227 18T140 -13Q104 -13 75 15T45 105Q45 157 64 211T116 314T189 403T272 464T354 487Q371 487 385 480T411 460L457 497L475 488L395 135Q386 98 386 78Q386 68 393 62T410 56Q429 56 455 76T508 128L532 109Q513 80 486 52T428 6T363 -13ZM337 549Q356 591
374 633T411 717Q421 737 433 748T462 760Q478 760 489 751T501 725Q501 702 479 676Q449 640 420 605T360 534L337 549Z" />
<glyph unicode="&#xe2;" glyph-name="acircumflex" horiz-adv-x="522" d="M123 146Q123 100 139 78T183 56Q209 56 243 77T326 152L380 402Q366 410 351 415T319 421Q295 421 266 406T209 363Q173 326 148 269T123 146ZM363 -13Q343 -13 327 1T311 45Q311 74 315
98Q272 49 227 18T140 -13Q104 -13 75 15T45 105Q45 157 64 211T116 314T189 403T272 464T354 487Q371 487 385 480T411 460L457 497L475 488L395 135Q386 98 386 78Q386 68 393 62T410 56Q429 56 455 76T508 128L532 109Q513 80 486 52T428 6T363 -13ZM473 546L370
666L232 546L212 567L368 743H400L500 567L473 546Z" />
<glyph unicode="&#xe3;" glyph-name="atilde" horiz-adv-x="522" d="M123 146Q123 100 139 78T183 56Q209 56 243 77T326 152L380 402Q366 410 351 415T319 421Q295 421 266 406T209 363Q173 326 148 269T123 146ZM363 -13Q343 -13 327 1T311 45Q311 74 315 98Q272
49 227 18T140 -13Q104 -13 75 15T45 105Q45 157 64 211T116 314T189 403T272 464T354 487Q371 487 385 480T411 460L457 497L475 488L395 135Q386 98 386 78Q386 68 393 62T410 56Q429 56 455 76T508 128L532 109Q513 80 486 52T428 6T363 -13ZM204 586Q215 651
245 682T312 714Q341 714 357 703T386 677Q403 660 419 644T458 628Q478 628 496 648T525 712L550 703Q537 639 509 607T442 575Q414 575 397 587T367 613Q352 630 336 645T295 661Q276 661 257 641T228 577L204 586Z" />
<glyph unicode="&#xe4;" glyph-name="adieresis" horiz-adv-x="522" d="M123 146Q123 100 139 78T183 56Q209 56 243 77T326 152L380 402Q366 410 351 415T319 421Q295 421 266 406T209 363Q173 326 148 269T123 146ZM363 -13Q343 -13 327 1T311 45Q311 74 315
98Q272 49 227 18T140 -13Q104 -13 75 15T45 105Q45 157 64 211T116 314T189 403T272 464T354 487Q371 487 385 480T411 460L457 497L475 488L395 135Q386 98 386 78Q386 68 393 62T410 56Q429 56 455 76T508 128L532 109Q513 80 486 52T428 6T363 -13ZM280 624Q261
624 248 636T234 670Q234 696 251 711T290 727Q310 727 322 715T335 683Q335 657 319 641T280 624ZM473 624Q456 624 443 636T429 670Q429 696 446 711T483 727Q503 727 516 715T529 683Q529 657 513 641T473 624Z" />
<glyph unicode="&#xe5;" glyph-name="aring" horiz-adv-x="522" d="M123 146Q123 100 139 78T183 56Q209 56 243 77T326 152L380 402Q366 410 351 415T319 421Q295 421 266 406T209 363Q173 326 148 269T123 146ZM363 -13Q343 -13 327 1T311 45Q311 74 315 98Q272
49 227 18T140 -13Q104 -13 75 15T45 105Q45 157 64 211T116 314T189 403T272 464T354 487Q371 487 385 480T411 460L457 497L475 488L395 135Q386 98 386 78Q386 68 393 62T410 56Q429 56 455 76T508 128L532 109Q513 80 486 52T428 6T363 -13ZM382 549Q342 549
314 573T286 640Q286 676 303 701T346 739T399 752Q437 752 467 728T497 663Q497 626 480 601T436 562T382 549ZM385 586Q412 586 431 608T451 659Q451 680 438 697T398 715Q367 715 349 692T331 642Q331 622 343 604T385 586Z" />
<glyph unicode="&#xe6;" glyph-name="ae" horiz-adv-x="667" d="M123 146Q123 100 139 78T183 56Q209 56 240 75T316 142Q315 150 315 157T315 173Q315 235 337 292T396 394Q378 408 359 414T319 421Q295 421 266 406T209 363Q173 326 148 269T123 146ZM554 444Q531
444 504 426T450 376T407 303T385 214Q468 238 517 267T588 327T610 385Q610 413 595 428T554 444ZM466 -13Q413 -13 375 16T322 106Q278 53 230 20T140 -13Q104 -13 75 15T45 105Q45 157 64 211T116 314T189 403T272 464T354 487Q382 487 403 474T440 437Q470
460 504 473T576 487Q625 487 650 463T676 395Q676 363 651 325T562 247T385 175Q388 111 415 84T488 56Q535 56 569 80T623 129L646 111Q615 60 568 24T466 -13Z" />
<glyph unicode="&#xe7;" glyph-name="ccedilla" horiz-adv-x="407" d="M204 -13Q138 -13 96 33T54 174Q54 237 76 293T135 393T218 462T311 487Q357 487 384 467T419 414Q416 395 404 387T377 379Q361 379 347 389T318 415L288 449Q245 434 209 395T151 302T129
185Q129 120 160 88T240 56Q280 56 310 80T362 129L385 111Q355 59 305 23T204 -13ZM149 -87L192 0H220L188 -69Q234 -85 257 -104T280 -157Q280 -187 253 -209T177 -231Q152 -231 128 -225T88 -208L99 -183Q116 -190 131 -194T165 -199Q191 -199 207 -187T223
-152Q223 -124 204 -110T149 -87Z" />
<glyph unicode="&#xe8;" glyph-name="egrave" horiz-adv-x="407" d="M293 444Q270 444 243 426T189 376T146 303T124 214Q207 238 256 267T327 327T349 385Q349 413 334 428T293 444ZM205 -13Q139 -13 97 32T54 173Q54 233 75 289T132 390T215 461T315 487Q364
487 389 463T415 395Q415 363 390 325T302 247T124 175Q127 111 154 84T227 56Q274 56 308 80T362 129L385 111Q354 60 307 24T205 -13ZM352 549L329 534Q299 570 270 605T210 676Q198 690 194 702T189 727Q189 743 200 752T227 762Q244 762 256 750T278 717Q297
675 315 633T352 549Z" />
<glyph unicode="&#xe9;" glyph-name="eacute" horiz-adv-x="407" d="M293 444Q270 444 243 426T189 376T146 303T124 214Q207 238 256 267T327 327T349 385Q349 413 334 428T293 444ZM205 -13Q139 -13 97 32T54 173Q54 233 75 289T132 390T215 461T315 487Q364
487 389 463T415 395Q415 363 390 325T302 247T124 175Q127 111 154 84T227 56Q274 56 308 80T362 129L385 111Q354 60 307 24T205 -13ZM312 549Q331 591 349 633T386 717Q396 737 408 748T437 760Q453 760 464 751T476 725Q476 702 454 676Q424 640 395 605T335
534L312 549Z" />
<glyph unicode="&#xea;" glyph-name="ecircumflex" horiz-adv-x="407" d="M293 444Q270 444 243 426T189 376T146 303T124 214Q207 238 256 267T327 327T349 385Q349 413 334 428T293 444ZM205 -13Q139 -13 97 32T54 173Q54 233 75 289T132 390T215 461T315 487Q364
487 389 463T415 395Q415 363 390 325T302 247T124 175Q127 111 154 84T227 56Q274 56 308 80T362 129L385 111Q354 60 307 24T205 -13ZM429 546L326 666L188 546L168 567L324 743H356L456 567L429 546Z" />
<glyph unicode="&#xeb;" glyph-name="edieresis" horiz-adv-x="407" d="M293 444Q270 444 243 426T189 376T146 303T124 214Q207 238 256 267T327 327T349 385Q349 413 334 428T293 444ZM205 -13Q139 -13 97 32T54 173Q54 233 75 289T132 390T215 461T315 487Q364
487 389 463T415 395Q415 363 390 325T302 247T124 175Q127 111 154 84T227 56Q274 56 308 80T362 129L385 111Q354 60 307 24T205 -13ZM240 624Q221 624 208 636T194 670Q194 696 211 711T250 727Q270 727 282 715T295 683Q295 657 279 641T240 624ZM433 624Q416
624 403 636T389 670Q389 696 406 711T443 727Q463 727 476 715T489 683Q489 657 473 641T433 624Z" />
<glyph unicode="&#xec;" glyph-name="igrave" horiz-adv-x="305" d="M90 38Q90 49 92 64T101 111L161 401L62 407L66 436L236 487L249 477L178 135Q174 116 172 101T169 78Q169 68 176 62T191 56Q227 56 287 128L312 109Q290 79 265 51T210 5T144 -13Q124 -13
107 0T90 38ZM244 549L221 534Q191 570 162 605T102 676Q90 690 86 702T81 727Q81 743 92 752T119 762Q136 762 148 750T170 717Q189 675 207 633T244 549Z" />
<glyph unicode="&#xed;" glyph-name="iacute" horiz-adv-x="305" d="M90 38Q90 49 92 64T101 111L161 401L62 407L66 436L236 487L249 477L178 135Q174 116 172 101T169 78Q169 68 176 62T191 56Q227 56 287 128L312 109Q290 79 265 51T210 5T144 -13Q124 -13
107 0T90 38ZM222 549Q241 591 259 633T296 717Q306 737 318 748T347 760Q363 760 374 751T386 725Q386 702 364 676Q334 640 305 605T245 534L222 549Z" />
<glyph unicode="&#xee;" glyph-name="icircumflex" horiz-adv-x="305" d="M90 38Q90 49 92 64T101 111L161 401L62 407L66 436L236 487L249 477L178 135Q174 116 172 101T169 78Q169 68 176 62T191 56Q227 56 287 128L312 109Q290 79 265 51T210 5T144 -13Q124
-13 107 0T90 38ZM339 546L236 666L98 546L78 567L234 743H266L366 567L339 546Z" />
<glyph unicode="&#xef;" glyph-name="idieresis" horiz-adv-x="305" d="M168 624Q150 624 136 636T122 670Q122 696 139 711T178 727Q198 727 211 715T224 683Q224 657 208 641T168 624ZM332 624Q314 624 301 636T287 670Q287 696 304 711T342 727Q362 727 374
715T387 683Q387 657 371 641T332 624ZM90 38Q90 49 92 64T101 111L161 401L62 407L66 436L236 487L249 477L178 135Q174 116 172 101T169 78Q169 68 176 62T191 56Q227 56 287 128L312 109Q290 79 265 51T210 5T144 -13Q124 -13 107 0T90 38Z" />
<glyph unicode="&#xf0;" glyph-name="eth" horiz-adv-x="488" d="M226 -13Q149 -13 102 36T54 174Q54 242 75 299T133 397T215 461T308 484Q363 484 398 449Q379 549 325 616L193 544L176 579L298 646Q279 665 256 682T206 716L233 749Q265 733 293 714T344 671L458
733L475 698L372 642Q425 581 451 503T478 336Q478 253 457 188T399 78T318 10T226 -13ZM233 27Q279 27 317 63T378 162T401 309Q401 383 375 412T308 441Q260 441 221 407T159 316T136 186Q136 104 162 66T233 27Z" />
<glyph unicode="&#xf1;" glyph-name="ntilde" horiz-adv-x="563" d="M153 0L86 -8L76 0L161 401L62 407L66 436L236 487L249 477L228 374Q278 421 334 454T437 487Q501 487 501 418Q501 394 496 370T485 320L440 135Q435 114 431 100T427 77Q427 56 446 56Q465
56 491 75T545 128L569 109Q550 80 523 52T463 5T396 -13Q373 -13 360 -1T346 30Q346 47 350 63T362 111L405 287Q411 313 416 336T421 374Q421 400 412 410T386 420Q359 420 317 398T220 331L193 210Q182 158 173 106T153 0ZM196 586Q207 651 237 682T304 714Q333
714 349 703T378 677Q395 660 411 644T450 628Q470 628 488 648T517 712L542 703Q529 639 501 607T434 575Q406 575 389 587T359 613Q344 630 328 645T287 661Q268 661 249 641T220 577L196 586Z" />
<glyph unicode="&#xf2;" glyph-name="ograve" horiz-adv-x="488" d="M221 -13Q175 -13 137 7T77 66T54 163Q54 231 74 289T131 392T214 462T315 487Q386 487 431 442T477 312Q477 247 457 189T402 85T320 13T221 -13ZM232 27Q269 27 299 50T350 112T384 199T396
297Q396 378 371 412T304 447Q257 447 219 410T158 312T136 175Q136 96 163 62T232 27ZM350 549L327 534Q297 570 268 605T208 676Q196 690 192 702T187 727Q187 743 198 752T225 762Q242 762 254 750T276 717Q295 675 313 633T350 549Z" />
<glyph unicode="&#xf3;" glyph-name="oacute" horiz-adv-x="488" d="M221 -13Q175 -13 137 7T77 66T54 163Q54 231 74 289T131 392T214 462T315 487Q386 487 431 442T477 312Q477 247 457 189T402 85T320 13T221 -13ZM232 27Q269 27 299 50T350 112T384 199T396
297Q396 378 371 412T304 447Q257 447 219 410T158 312T136 175Q136 96 163 62T232 27ZM294 549Q313 591 331 633T368 717Q378 737 390 748T419 760Q435 760 446 751T458 725Q458 702 436 676Q406 640 377 605T317 534L294 549Z" />
<glyph unicode="&#xf4;" glyph-name="ocircumflex" horiz-adv-x="488" d="M221 -13Q175 -13 137 7T77 66T54 163Q54 231 74 289T131 392T214 462T315 487Q386 487 431 442T477 312Q477 247 457 189T402 85T320 13T221 -13ZM232 27Q269 27 299 50T350 112T384 199T396
297Q396 378 371 412T304 447Q257 447 219 410T158 312T136 175Q136 96 163 62T232 27ZM444 546L341 666L203 546L183 567L339 743H371L471 567L444 546Z" />
<glyph unicode="&#xf5;" glyph-name="otilde" horiz-adv-x="488" d="M221 -13Q175 -13 137 7T77 66T54 163Q54 231 74 289T131 392T214 462T315 487Q386 487 431 442T477 312Q477 247 457 189T402 85T320 13T221 -13ZM232 27Q269 27 299 50T350 112T384 199T396
297Q396 378 371 412T304 447Q257 447 219 410T158 312T136 175Q136 96 163 62T232 27ZM161 589Q172 654 202 685T269 717Q298 717 314 706T343 680Q360 663 376 647T415 631Q435 631 453 651T482 715L507 706Q494 642 466 610T399 578Q371 578 354 590T324 616Q309
633 293 648T252 664Q233 664 214 644T185 580L161 589Z" />
<glyph unicode="&#xf6;" glyph-name="odieresis" horiz-adv-x="488" d="M221 -13Q175 -13 137 7T77 66T54 163Q54 231 74 289T131 392T214 462T315 487Q386 487 431 442T477 312Q477 247 457 189T402 85T320 13T221 -13ZM232 27Q269 27 299 50T350 112T384 199T396
297Q396 378 371 412T304 447Q257 447 219 410T158 312T136 175Q136 96 163 62T232 27ZM241 624Q222 624 209 636T195 670Q195 696 212 711T251 727Q271 727 283 715T296 683Q296 657 280 641T241 624ZM434 624Q417 624 404 636T390 670Q390 696 407 711T444 727Q464
727 477 715T490 683Q490 657 474 641T434 624Z" />
<glyph unicode="&#xf7;" glyph-name="divide" horiz-adv-x="530" d="M281 72Q255 72 236 89T217 134Q217 163 236 179T281 196Q307 196 326 180T345 134Q345 106 326 89T281 72ZM281 463Q255 463 236 480T217 526Q217 555 236 571T281 588Q307 588 326 572T345
526Q345 498 326 481T281 463ZM503 303H59V356H503V303Z" />
<glyph unicode="&#xf8;" glyph-name="oslash" horiz-adv-x="488" d="M523 475L456 408Q466 389 471 365T477 312Q477 247 457 189T402 85T320 13T221 -13Q181 -13 147 2T90 47L22 -20L-7 5L70 81Q54 118 54 163Q54 231 74 289T131 392T214 462T315 487Q351 487
381 475T434 439L496 501L523 475ZM132 175Q132 167 132 159T133 143L385 392Q373 424 352 435T304 447Q256 447 217 410T155 312T132 175ZM232 27Q270 27 300 50T353 112T387 199T399 297Q399 327 396 349L141 98Q152 58 176 43T232 27Z" />
<glyph unicode="&#xf9;" glyph-name="ugrave" horiz-adv-x="572" d="M412 -13Q392 -13 376 0T359 39Q359 49 360 62T367 101Q309 48 261 18T167 -13Q139 -13 119 3T98 60Q98 88 105 122T119 186L165 402L66 407L70 437L244 487L257 477L194 194Q187 163 183 140T179
99Q179 56 217 56Q249 56 284 76T376 142L403 275Q413 323 422 371T439 467L504 487L517 477L446 135Q442 116 440 101T437 78Q437 68 444 62T460 56Q480 56 504 74T559 128L583 109Q560 79 534 51T478 5T412 -13ZM384 539L361 524Q331 560 302 595T242 666Q230
680 226 692T221 717Q221 733 232 742T259 752Q276 752 288 740T310 707Q329 665 347 623T384 539Z" />
<glyph unicode="&#xfa;" glyph-name="uacute" horiz-adv-x="572" d="M412 -13Q392 -13 376 0T359 39Q359 49 360 62T367 101Q309 48 261 18T167 -13Q139 -13 119 3T98 60Q98 88 105 122T119 186L165 402L66 407L70 437L244 487L257 477L194 194Q187 163 183 140T179
99Q179 56 217 56Q249 56 284 76T376 142L403 275Q413 323 422 371T439 467L504 487L517 477L446 135Q442 116 440 101T437 78Q437 68 444 62T460 56Q480 56 504 74T559 128L583 109Q560 79 534 51T478 5T412 -13ZM343 549Q362 591 380 633T417 717Q427 737 439
748T468 760Q484 760 495 751T507 725Q507 702 485 676Q455 640 426 605T366 534L343 549Z" />
<glyph unicode="&#xfb;" glyph-name="ucircumflex" horiz-adv-x="572" d="M412 -13Q392 -13 376 0T359 39Q359 49 360 62T367 101Q309 48 261 18T167 -13Q139 -13 119 3T98 60Q98 88 105 122T119 186L165 402L66 407L70 437L244 487L257 477L194 194Q187 163 183
140T179 99Q179 56 217 56Q249 56 284 76T376 142L403 275Q413 323 422 371T439 467L504 487L517 477L446 135Q442 116 440 101T437 78Q437 68 444 62T460 56Q480 56 504 74T559 128L583 109Q560 79 534 51T478 5T412 -13ZM478 546L375 666L237 546L217 567L373
743H405L505 567L478 546Z" />
<glyph unicode="&#xfc;" glyph-name="udieresis" horiz-adv-x="572" d="M412 -13Q392 -13 376 0T359 39Q359 49 360 62T367 101Q309 48 261 18T167 -13Q139 -13 119 3T98 60Q98 88 105 122T119 186L165 402L66 407L70 437L244 487L257 477L194 194Q187 163 183
140T179 99Q179 56 217 56Q249 56 284 76T376 142L403 275Q413 323 422 371T439 467L504 487L517 477L446 135Q442 116 440 101T437 78Q437 68 444 62T460 56Q480 56 504 74T559 128L583 109Q560 79 534 51T478 5T412 -13ZM277 624Q258 624 245 636T231 670Q231
696 248 711T287 727Q307 727 319 715T332 683Q332 657 316 641T277 624ZM470 624Q453 624 440 636T426 670Q426 696 443 711T480 727Q500 727 513 715T526 683Q526 657 510 641T470 624Z" />
<glyph unicode="&#xfd;" glyph-name="yacute" horiz-adv-x="476" d="M-82 -182Q-78 -160 -64 -149T-28 -137Q-6 -137 12 -146T53 -172L56 -174Q105 -143 146 -101Q160 -87 173 -72T199 -41Q195 18 190 64T178 161T162 277Q155 341 150 370T138 409T123 418Q110
418 97 406T56 352L33 368Q63 432 96 459T160 487Q179 487 192 477T215 439T231 354Q240 267 245 190T254 43Q289 107 313 156T356 252T391 357Q408 415 419 444T442 483T467 493Q484 493 494 484T504 459Q504 440 499 424T479 378Q463 346 446 312T399 226Q371
177 339 120T265 0Q246 -29 224 -60T171 -126Q122 -179 78 -209T-11 -240Q-44 -240 -62 -224T-82 -182ZM312 539Q331 581 349 623T386 707Q396 727 408 738T437 750Q453 750 464 741T476 715Q476 692 454 666Q424 630 395 595T335 524L312 539Z" />
<glyph unicode="&#xfe;" glyph-name="thorn" horiz-adv-x="505" d="M369 420Q338 420 297 393T207 316L159 83Q179 68 198 62T234 55Q272 55 305 76T365 131Q395 171 412 221T430 324Q430 373 414 396T369 420ZM197 -206L190 -240H-64L-57 -206L29 -192L168 476Q177
521 185 565T200 654L104 661L109 690L282 740L293 732L217 364Q264 422 318 454T416 487Q453 487 480 460T507 364Q507 313 489 260T440 159T369 71T285 10T198 -13Q167 -13 141 2Q131 -46 122 -94T103 -191L197 -206Z" />
<glyph unicode="&#xff;" glyph-name="ydieresis" horiz-adv-x="476" d="M-82 -182Q-78 -160 -64 -149T-28 -137Q-6 -137 12 -146T53 -172L56 -174Q105 -143 146 -101Q160 -87 173 -72T199 -41Q195 18 190 64T178 161T162 277Q155 341 150 370T138 409T123 418Q110
418 97 406T56 352L33 368Q63 432 96 459T160 487Q179 487 192 477T215 439T231 354Q240 267 245 190T254 43Q289 107 313 156T356 252T391 357Q408 415 419 444T442 483T467 493Q484 493 494 484T504 459Q504 440 499 424T479 378Q463 346 446 312T399 226Q371
177 339 120T265 0Q246 -29 224 -60T171 -126Q122 -179 78 -209T-11 -240Q-44 -240 -62 -224T-82 -182ZM261 624Q242 624 229 636T215 670Q215 696 232 711T271 727Q291 727 303 715T316 683Q316 657 300 641T261 624ZM454 624Q437 624 424 636T410 670Q410 696
427 711T464 727Q484 727 497 715T510 683Q510 657 494 641T454 624Z" />
<glyph unicode="&#x2013;" glyph-name="endash" horiz-adv-x="511" d="M56 219V283H487V219H56Z" />
<glyph unicode="&#x2014;" glyph-name="emdash" horiz-adv-x="811" d="M56 219V283H787V219H56Z" />
<glyph unicode="&#x2018;" glyph-name="quoteleft" horiz-adv-x="275" d="M209 476Q194 476 182 480T155 497Q150 514 150 533Q150 598 192 655T305 759L325 730Q291 703 268 680T221 622L239 597Q250 581 257 568T264 541Q264 508 248 492T209 476Z" />
<glyph unicode="&#x2019;" glyph-name="quoteright" horiz-adv-x="275" d="M246 717Q261 717 274 713T300 696Q305 679 305 660Q305 595 263 538T150 434L130 463Q165 490 188 513T234 571L216 596Q205 612 198 625T191 652Q191 685 207 701T246 717Z" />
<glyph unicode="&#x201a;" glyph-name="quotesinglbase" horiz-adv-x="295" d="M128 116Q143 116 156 112T182 95Q187 78 187 59Q187 -6 145 -63T32 -167L12 -138Q47 -111 70 -88T116 -30L98 -5Q87 11 80 24T73 51Q73 84 89 100T128 116Z" />
<glyph unicode="&#x201c;" glyph-name="quotedblleft" horiz-adv-x="475" d="M209 476Q194 476 182 480T155 497Q150 514 150 533Q150 598 192 655T305 759L325 730Q291 703 268 680T221 622L239 597Q250 581 257 568T264 541Q264 508 248 492T209 476ZM409 476Q394
476 382 480T355 497Q350 514 350 533Q350 598 392 655T505 759L525 730Q491 703 468 680T421 622L439 597Q450 581 457 568T464 541Q464 508 448 492T409 476Z" />
<glyph unicode="&#x201d;" glyph-name="quotedblright" horiz-adv-x="475" d="M446 717Q461 717 474 713T500 696Q505 679 505 660Q505 595 463 538T350 434L330 463Q365 490 388 513T434 571L416 596Q405 612 398 625T391 652Q391 685 407 701T446 717ZM246 717Q261
717 274 713T300 696Q305 679 305 660Q305 595 263 538T150 434L130 463Q165 490 188 513T234 571L216 596Q205 612 198 625T191 652Q191 685 207 701T246 717Z" />
<glyph unicode="&#x201e;" glyph-name="quotedblbase" horiz-adv-x="495" d="M328 116Q343 116 356 112T382 95Q387 78 387 59Q387 -6 345 -63T232 -167L212 -138Q247 -111 270 -88T316 -30L298 -5Q287 11 280 24T273 51Q273 84 289 100T328 116ZM128 116Q143
116 156 112T182 95Q187 78 187 59Q187 -6 145 -63T32 -167L12 -138Q47 -111 70 -88T116 -30L98 -5Q87 11 80 24T73 51Q73 84 89 100T128 116Z" />
<glyph unicode="&#x2022;" glyph-name="bullet" horiz-adv-x="296" d="M173 242Q133 242 108 266T82 331Q82 365 98 390T139 430T191 445Q230 445 256 421T282 357Q282 322 266 296T225 256T173 242Z" />
<glyph unicode="&#x2039;" glyph-name="guilsinglleft" horiz-adv-x="350" d="M251 50L74 226L83 279L309 455L331 424L147 253L279 78L251 50Z" />
<glyph unicode="&#x203a;" glyph-name="guilsinglright" horiz-adv-x="350" d="M132 455L309 279L300 226L74 50L52 81L236 252L104 427L132 455Z" />
</font>
</defs>
</svg>
