<?xml version="1.0" standalone="no"?>
<!DOCTYPE svg PUBLIC "-//W3C//DTD SVG 1.1//EN" "http://www.w3.org/Graphics/SVG/1.1/DTD/svg11.dtd">
<svg xmlns="http://www.w3.org/2000/svg">
<defs >
<font id="SourceSerifPro" horiz-adv-x="558" ><font-face
    font-family="Source Serif Pro"
    units-per-em="1000"
    panose-1="2 4 6 3 5 4 5 2 2 4"
    ascent="918"
    descent="-335"
    alphabetic="0" />
<glyph unicode=" " glyph-name="space" horiz-adv-x="233" />
<glyph unicode="!" glyph-name="exclam" horiz-adv-x="289" d="M145 -13Q118 -13 99 6T80 52Q80 78 99 97T145 117Q172 117 190 98T209 52Q209 26 191 7T145 -13ZM145 684Q171 684 186 669T202 621Q202 593 195 525T177 352L163 215H126L113 352Q102 456 95 524T87
621Q87 654 102 669T145 684Z" />
<glyph unicode="&quot;" glyph-name="quotedbl" horiz-adv-x="356" d="M92 737Q116 737 129 722T143 674Q143 659 141 635T134 585T127 535T121 500L110 429H73L62 500Q60 512 57 535T49 584T43 635T40 674Q40 707 54 722T92 737ZM264 737Q288 737 301 722T315
674Q315 659 313 635T306 585T299 535T293 500L282 429H245L234 500Q232 512 229 535T221 584T215 635T212 674Q212 707 226 722T264 737Z" />
<glyph unicode="#" glyph-name="numbersign" horiz-adv-x="526" d="M175 261H333L353 391H195L175 261ZM88 0L116 180H25V261H128L148 391H57V473H161L188 650H235L208 473H366L393 650H440L413 473H502V391H400L380 261H470V180H368L340 0H293L321 180H163L135 0H88Z" />
<glyph unicode="$" glyph-name="dollar" horiz-adv-x="500" d="M238 -115V-13Q159 -11 107 29T51 133Q65 165 97 165Q116 165 131 152T156 98L168 43Q186 39 204 38T238 35V281L226 285Q147 313 103 357T58 477Q58 526 81 565T145 630T240 658V749H281V658Q349
652 395 613T445 514Q440 498 428 490T401 482Q384 482 367 495T341 549L329 603Q316 606 304 607T281 610V367L287 365Q388 330 426 282T464 171Q464 98 415 48T280 -11V-115H238ZM383 150Q383 194 359 219T280 265V37Q328 45 355 74T383 150ZM138 499Q138 454
164 426T240 381V608Q196 602 167 575T138 499Z" />
<glyph unicode="%" glyph-name="percent" horiz-adv-x="861" d="M220 -25L189 0L654 669L685 644L220 -25ZM142 451Q142 380 151 342T177 291T210 277Q228 277 243 290T267 342T276 451Q276 523 267 560T243 611T210 625Q193 625 177 612T152 561T142 451ZM210
659Q246 659 277 638T329 570T349 451Q349 379 329 333T278 266T210 244Q174 244 142 265T90 333T69 451Q69 524 89 570T142 637T210 659ZM585 198Q585 127 594 89T620 38T653 24Q671 24 686 37T710 89T719 198Q719 270 710 307T686 358T653 372Q636 372 620 359T595
308T585 198ZM653 406Q689 406 720 385T772 317T792 198Q792 126 772 80T721 13T653 -9Q617 -9 585 12T533 80T512 198Q512 271 532 317T585 384T653 406Z" />
<glyph unicode="&amp;" glyph-name="ampersand" horiz-adv-x="720" d="M222 443Q236 425 249 410Q296 442 325 477T355 555Q355 599 330 624T268 649Q230 649 204 623T177 556Q177 529 185 504T222 443ZM670 -3Q648 -8 631 -10T594 -13Q554 -13 528 -3T477 33Q468
44 459 53T442 72Q409 36 360 12T238 -13Q176 -13 128 11T54 77T27 169Q27 237 65 288T178 376Q177 378 176 379T174 381Q137 424 121 463T105 542Q105 608 152 646T269 684Q343 684 382 648T421 556Q421 504 386 464T273 383Q289 365 308 344T353 294Q383 261
411 232T468 170Q496 217 517 267T551 376L472 389V429H675V389L599 375Q582 307 556 250T495 141Q514 122 534 100T577 54L674 41L670 -3ZM311 219Q277 260 252 290T202 348Q150 317 132 276T114 196Q114 160 131 127T183 72T265 51Q307 51 346 65T413 104Q385
134 361 162T311 219Z" />
<glyph unicode="&apos;" glyph-name="quotesingle" horiz-adv-x="183" d="M92 737Q116 737 129 722T143 674Q143 659 141 635T134 585T127 535T121 500L110 429H73L62 500Q60 512 57 535T49 584T43 635T40 674Q40 707 54 722T92 737Z" />
<glyph unicode="(" glyph-name="parenleft" horiz-adv-x="339" d="M160 278Q160 198 174 129T221 -12T314 -169L288 -192Q182 -93 131 24T80 278Q80 415 131 532T288 748L314 725Q255 640 222 569T174 428T160 278Z" />
<glyph unicode=")" glyph-name="parenright" horiz-adv-x="339" d="M179 278Q179 358 165 427T118 568T25 725L51 748Q157 649 208 532T259 278Q259 141 208 24T51 -192L25 -169Q84 -84 117 -13T165 128T179 278Z" />
<glyph unicode="*" glyph-name="asterisk" horiz-adv-x="439" d="M220 747Q235 747 245 739T256 711Q256 698 251 670T241 607L234 560L277 581Q315 599 343 613T388 627Q402 627 411 617T420 592Q420 564 385 557T291 540L243 532L277 497Q312 462 335 439T358
395Q358 381 348 372T325 363Q301 363 285 393T242 472L220 514L197 472Q172 423 155 393T114 363Q102 363 92 372T81 395Q81 416 104 439T162 497L196 532L149 540Q89 549 55 556T20 592Q20 607 29 617T53 627Q70 627 97 613T162 581L205 560L198 607Q193 641
189 669T185 711Q185 730 194 738T220 747Z" />
<glyph unicode="+" glyph-name="plus" horiz-adv-x="531" d="M235 77V301H29V358H235V577H296V358H502V301H296V77H235Z" />
<glyph unicode="," glyph-name="comma" horiz-adv-x="300" d="M213 29Q213 -31 185 -82T112 -169T20 -224L6 -190Q57 -164 96 -127T153 -34L116 -5Q96 11 87 29T78 67Q78 93 93 111T140 130Q154 130 168 124T202 101Q208 82 210 65T213 29Z" />
<glyph unicode="-" glyph-name="hyphen" horiz-adv-x="312" d="M40 218V284H272V218H40Z" />
<glyph unicode="." glyph-name="period" horiz-adv-x="300" d="M150 -13Q120 -13 100 8T79 58Q79 88 99 109T150 130Q180 130 200 109T221 58Q221 29 201 8T150 -13Z" />
<glyph unicode="/" glyph-name="slash" horiz-adv-x="330" d="M2 -160L269 710H328L61 -160H2Z" />
<glyph unicode="0" glyph-name="zero" horiz-adv-x="500" d="M133 322Q133 206 149 143T193 56T251 32Q281 32 307 56T350 144T367 322Q367 439 351 502T308 589T251 614Q228 614 207 601T169 556T143 467T133 322ZM251 659Q304 659 351 627T429 520T460 322Q460
199 430 126T352 20T251 -13Q198 -13 150 19T71 125T41 322Q41 446 71 520T149 626T251 659Z" />
<glyph unicode="1" glyph-name="one" horiz-adv-x="500" d="M85 601L291 654L305 644L301 501V211Q301 174 301 136T303 60L445 36V0H74V36L215 60Q216 98 216 136T217 211V571L85 560V601Z" />
<glyph unicode="2" glyph-name="two" horiz-adv-x="500" d="M305 0V65Q345 104 382 142T452 215Q527 294 562 358T597 480Q597 542 565 578T477 614Q467 614 455 613T428 609L409 540Q399 503 386 488T351 472Q318 472 300 504Q306 557 335 591T408 642T502 659Q599
659 643 612T687 489Q687 445 670 404T609 311T489 185Q469 165 441 138T381 82H716V0H305Z" />
<glyph unicode="3" glyph-name="three" horiz-adv-x="500" d="M170 365H210Q278 365 315 400T353 499Q353 554 322 584T231 614Q221 614 210 613T185 610L172 560Q164 529 152 514T114 498Q98 498 85 506T66 533Q79 596 129 627T248 659Q336 659 388 616T440 502Q440
448 406 406T309 341Q386 326 423 283T460 178Q460 124 432 81T354 13T236 -13Q163 -13 111 20T44 129Q61 162 95 162Q121 162 132 145T154 90L167 38Q184 34 198 33T223 32Q297 32 334 70T371 176Q371 241 333 278T218 315H170V365Z" />
<glyph unicode="4" glyph-name="four" horiz-adv-x="500" d="M740 193H635V0H552V193H280V246L577 655H635V256H740V193ZM340 256H552V551L340 256Z" />
<glyph unicode="5" glyph-name="five" horiz-adv-x="500" d="M714 201Q714 137 685 89T604 14T481 -13Q326 -13 294 128Q307 162 345 162Q368 162 380 148T403 94L417 40Q432 36 446 34T474 32Q548 32 586 75T624 191Q624 266 582 305T468 345Q425 345 376 334L348
342L369 646H696V564H413L401 394Q446 406 495 406Q593 406 653 354T714 201Z" />
<glyph unicode="6" glyph-name="six" horiz-adv-x="500" d="M510 32Q560 32 592 75T624 197Q624 267 593 301T509 336Q479 336 449 326T389 292Q388 282 388 272T387 250Q387 136 421 84T510 32ZM713 199Q713 136 684 88T609 14T512 -13Q412 -13 354 60T296 262Q296
362 340 447T471 588T679 659L685 627Q549 592 480 516T394 335Q458 397 539 397Q594 397 632 371T692 301T713 199Z" />
<glyph unicode="7" glyph-name="seven" horiz-adv-x="500" d="M133 10L397 564H51V646H464V595L226 0H143L133 10Z" />
<glyph unicode="8" glyph-name="eight" horiz-adv-x="500" d="M401 514Q401 475 426 439T525 365Q570 400 588 431T606 503Q606 548 580 581T507 614Q464 614 433 587T401 514ZM300 149Q300 203 336 243T441 317Q378 352 350 396T322 492Q322 545 347 582T414
639T509 659Q588 659 634 616T681 505Q681 470 656 429T563 347Q637 310 674 267T711 158Q711 108 684 69T611 9T507 -13Q416 -13 358 28T300 149ZM383 155Q383 102 418 67T509 31Q562 31 594 66T627 151Q627 195 595 227T478 298Q431 269 407 237T383 155Z" />
<glyph unicode="9" glyph-name="nine" horiz-adv-x="500" d="M374 461Q374 385 412 351T506 316Q569 316 615 356Q616 363 616 369T616 382Q616 504 583 559T494 614Q445 614 410 576T374 461ZM706 399Q706 304 669 220T552 73T342 -20L332 18Q468 63 532 132T611
306Q560 256 479 256Q426 256 382 279T311 347T285 452Q285 514 312 560T387 633T498 659Q596 659 651 589T706 399Z" />
<glyph unicode=":" glyph-name="colon" horiz-adv-x="300" d="M150 350Q120 350 100 371T79 421Q79 451 99 472T150 493Q180 493 200 472T221 421Q221 392 201 371T150 350ZM150 -13Q120 -13 100 8T79 58Q79 88 99 109T150 130Q180 130 200 109T221 58Q221 29
201 8T150 -13Z" />
<glyph unicode=";" glyph-name="semicolon" horiz-adv-x="300" d="M150 350Q120 350 100 371T79 421Q79 451 99 472T150 493Q180 493 200 472T221 421Q221 392 201 371T150 350ZM213 29Q213 -31 185 -82T112 -169T20 -224L6 -190Q57 -164 96 -127T153 -34L116
-5Q96 11 87 29T78 67Q78 93 93 111T140 130Q154 130 168 124T202 101Q208 82 210 65T213 29Z" />
<glyph unicode="&lt;" glyph-name="less" horiz-adv-x="531" d="M57 306V353L444 578L474 524L127 330L474 135L444 81L57 306Z" />
<glyph unicode="=" glyph-name="equal" horiz-adv-x="531" d="M502 457H29V514H502V457ZM502 401H29V458H502V401Z" />
<glyph unicode="&gt;" glyph-name="greater" horiz-adv-x="531" d="M474 353V306L87 81L57 135L404 330L57 524L87 578L474 353Z" />
<glyph unicode="?" glyph-name="question" horiz-adv-x="416" d="M149 -13Q122 -13 104 6T85 52Q85 78 103 97T149 117Q176 117 195 98T214 52Q214 26 195 7T149 -13ZM350 461Q350 367 250 335L216 323Q185 313 177 303T169 268V213H130L118 255Q109 284 106 300T102
325Q102 348 120 363T182 391L239 409Q295 428 295 478Q295 497 288 515T269 552L138 575Q94 583 80 596T66 629Q66 652 80 664T121 684Q153 681 192 664T267 618T326 549T350 461Z" />
<glyph unicode="@" glyph-name="at" horiz-adv-x="835" d="M301 202Q301 106 370 106Q392 106 415 117T473 158L518 395Q503 413 488 420T457 428Q425 428 389 401T327 323T301 202ZM584 47Q538 47 511 70T477 129Q446 92 412 70T339 47Q298 47 265 77T231 177Q231
233 251 286T306 381T381 449T465 475Q502 475 533 450L580 474L599 458L542 172Q535 135 549 115T596 94Q630 94 663 118T719 195T741 333Q741 424 706 487T609 585T469 619Q387 619 319 586T201 496T124 366T97 213Q97 131 123 70T193 -33T296 -94T418 -114Q507
-114 572 -83L585 -113Q542 -135 492 -145T397 -155Q297 -155 215 -115T85 6T36 204Q36 300 69 383T163 528T302 625T475 660Q577 660 649 617T761 499T800 324Q800 252 779 200T725 113T654 63T584 47Z" />
<glyph unicode="A" glyph-name="A" horiz-adv-x="664" d="M309 562L208 264H409L309 562ZM5 0V41L89 54L302 674H365L578 50L653 41V0H381V41L479 53L424 217H192L136 54L234 41V0H5Z" />
<glyph unicode="B" glyph-name="B" horiz-adv-x="629" d="M288 323H233Q233 244 233 178T235 47H296Q392 47 439 82T486 183Q486 253 439 288T288 323ZM304 623H235Q234 559 234 494T233 369H285Q376 369 417 400T458 499Q458 567 420 595T304 623ZM44 628V669H334Q438
669 495 623T552 506Q552 453 516 409T397 348Q497 334 541 289T586 183Q586 138 560 96T474 27T319 0H44V41L136 52Q138 115 138 180T138 310V359Q138 424 138 488T136 617L44 628Z" />
<glyph unicode="C" glyph-name="C" horiz-adv-x="631" d="M386 -15Q285 -15 209 29T90 153T47 335Q47 411 72 474T143 585T250 658T385 684Q426 684 477 675T578 636L582 491H520L500 607Q473 622 448 628T398 634Q331 634 276 600T189 500T156 335Q156 237 186
170T269 69T391 35Q420 35 450 41T510 62L530 178H592L588 33Q542 8 491 -3T386 -15Z" />
<glyph unicode="D" glyph-name="D" horiz-adv-x="710" d="M233 322Q233 249 233 181T235 47H314Q430 47 492 122T554 334Q554 475 493 549T323 623H235Q234 559 234 493T233 359V322ZM44 628V669H339Q435 669 508 631T622 518T663 334Q663 226 618 152T496 39T320
0H44V41L136 52Q138 116 138 182T138 322V359Q138 424 138 488T136 617L44 628Z" />
<glyph unicode="E" glyph-name="E" horiz-adv-x="603" d="M44 628V669H542L549 492H492L470 619H235Q234 555 234 491T233 365H380L394 460H440V224H394L381 318H233Q233 243 233 178T235 50H490L512 178H569L562 0H44V41L136 52Q138 115 138 180T138 310V359Q138
424 138 488T136 617L44 628Z" />
<glyph unicode="F" glyph-name="F" horiz-adv-x="579" d="M44 628V669H542L549 492H492L470 619H235Q234 555 234 491T233 365H388L402 460H448V214H402L388 318H233Q233 244 233 179T235 52L328 41V0H44V41L136 52Q138 115 138 180T138 310V359Q138 424 138 488T136
617L44 628Z" />
<glyph unicode="G" glyph-name="G" horiz-adv-x="682" d="M384 -15Q284 -15 208 30T90 155T47 335Q47 436 90 514T209 638T388 684Q450 684 498 673T589 637L593 491H531L511 605Q459 634 397 634Q328 634 274 599T188 498T156 335Q156 192 222 114T403 36Q460
36 510 56V88Q510 133 510 178T508 269L404 278V318H667V278L606 272Q605 227 605 181T604 88V44Q552 17 499 1T384 -15Z" />
<glyph unicode="H" glyph-name="H" horiz-adv-x="789" d="M462 628V669H744V628L652 617Q651 554 651 489T650 359V310Q650 246 650 182T652 52L744 41V0H462V41L554 52Q556 116 556 182T556 319H233Q233 243 233 178T235 51L326 41V0H44V41L136 52Q138 115 138
180T138 310V359Q138 424 138 488T136 617L44 628V669H326V628L235 618Q234 554 234 490T233 366H556Q556 432 556 494T554 617L462 628Z" />
<glyph unicode="I" glyph-name="I" horiz-adv-x="371" d="M44 628V669H327V628L235 617Q234 554 234 489T233 359V310Q233 246 233 182T235 52L327 41V0H44V41L136 52Q138 115 138 180T138 310V359Q138 424 138 488T136 617L44 628Z" />
<glyph unicode="J" glyph-name="J" horiz-adv-x="374" d="M47 628V669H340V628L248 617Q247 554 247 490T246 360V204Q246 128 244 77T234 -8T215 -65T181 -109Q156 -134 121 -148T44 -163Q16 -163 -9 -153T-43 -114Q-38 -86 -22 -75T19 -64Q53 -64 94 -95L119
-115Q141 -94 149 -65T158 7Q158 25 158 51T156 119T154 226T152 387T149 617L47 628Z" />
<glyph unicode="K" glyph-name="K" horiz-adv-x="667" d="M44 628V669H326V628L231 617Q230 553 230 489T229 359V296L489 614L417 628V669H647V628L550 615L383 414L585 51L662 41V0H405V41L487 51L328 348L229 229Q229 189 229 144T231 52L326 41V0H44V41L136
52Q138 115 138 180T138 310V359Q138 424 138 488T136 617L44 628Z" />
<glyph unicode="L" glyph-name="L" horiz-adv-x="596" d="M44 628V669H327V628L235 617Q234 553 234 489T233 359V290Q233 237 233 176T235 50H462L491 188H552L542 0H44V41L136 52Q138 117 138 181T138 309V359Q138 424 138 489T136 617L44 628Z" />
<glyph unicode="M" glyph-name="M" horiz-adv-x="902" d="M39 0V41L129 54V617L39 628V669H224L448 119L660 669H857V628L765 617Q764 554 764 489T763 359V310Q763 246 763 182T765 52L857 41V0H585V41L669 52Q671 115 671 180T671 309V558L454 0H404L175 558L181
369V54L263 41V0H39Z" />
<glyph unicode="N" glyph-name="N" horiz-adv-x="735" d="M454 628V669H695V628L610 615V-7H575L175 538V55L281 41V0H39V41L124 53V608L115 620L44 628V669H198L559 173V615L454 628Z" />
<glyph unicode="O" glyph-name="O" horiz-adv-x="707" d="M354 -15Q296 -15 241 7T142 74T73 183T47 335Q47 417 73 482T142 592T241 660T354 684Q412 684 466 662T564 595T634 486T660 335Q660 253 635 188T566 78T467 9T354 -15ZM354 35Q406 35 443 60T504 128T539
224T550 335Q550 391 539 444T505 541T444 609T354 634Q302 634 265 609T203 541T168 445T156 335Q156 278 167 225T203 129T264 61T354 35Z" />
<glyph unicode="P" glyph-name="P" horiz-adv-x="589" d="M295 623H235Q234 559 234 493T233 359V311H299Q390 311 429 355T468 470Q468 543 427 583T295 623ZM44 628V669H313Q440 669 503 614T567 470Q567 414 539 367T450 292T285 264H233Q233 210 233 158T235
52L328 41V0H44V41L136 52Q138 115 138 180T138 310V359Q138 424 138 488T136 617L44 628Z" />
<glyph unicode="Q" glyph-name="Q" horiz-adv-x="707" d="M354 35Q406 35 443 60T504 128T539 224T550 335Q550 391 539 444T505 541T444 609T354 634Q302 634 265 609T203 541T168 445T156 335Q156 278 167 225T203 129T264 61T354 35ZM500 -216Q437 -216 393
-187T325 -111T302 -10Q234 2 176 45T83 160T47 335Q47 417 73 482T142 592T241 660T354 684Q412 684 466 662T564 595T634 486T660 335Q660 235 623 161T526 43T396 -12Q398 -83 435 -121T534 -160Q549 -160 568 -158T612 -148L623 -184Q598 -200 565 -208T500
-216Z" />
<glyph unicode="R" glyph-name="R" horiz-adv-x="651" d="M321 623H235Q234 557 234 492T233 355H310Q391 355 429 394T468 493Q468 556 433 589T321 623ZM44 628V669H324Q439 669 503 623T567 494Q567 436 525 388T399 325Q443 316 471 287T517 198L560 50L637
41V0Q622 -4 604 -7T562 -10Q515 -10 492 4T459 54L419 214Q410 255 393 275T350 303T282 310H233Q233 238 233 175T235 52L327 41V0H44V41L136 52Q138 115 138 180T138 310V359Q138 424 138 488T136 617L44 628Z" />
<glyph unicode="S" glyph-name="S" horiz-adv-x="512" d="M235 -15Q179 -15 127 0T40 38L46 178H108L128 60Q151 47 175 41T232 35Q303 35 345 66T387 156Q387 204 358 230T264 282L225 298Q148 328 101 375T53 499Q53 557 82 598T163 661T278 684Q328 684 369
670T442 632L436 501H375L354 614Q317 634 272 634Q215 634 176 606T137 521Q137 475 166 445T250 394L290 379Q388 341 430 294T472 175Q472 116 442 74T358 8T235 -15Z" />
<glyph unicode="T" glyph-name="T" horiz-adv-x="604" d="M20 491L28 669H576L584 491H526L504 619H351Q350 555 350 490T349 359V310Q349 246 349 182T351 52L453 41V0H151V41L253 52Q255 116 255 180T255 310V359Q255 424 255 489T253 619H100L78 491H20Z" />
<glyph unicode="U" glyph-name="U" horiz-adv-x="727" d="M453 628V669H693V628L606 617V274Q606 169 575 106T490 14T367 -15Q295 -15 240 13T155 100T124 252V360Q124 425 124 489T122 618L39 628V669H322V628L220 616Q219 553 219 489T218 360V281Q218 196
238 147T296 77T384 56Q469 56 512 110T555 298V615L453 628Z" />
<glyph unicode="V" glyph-name="V" horiz-adv-x="674" d="M15 628V669H288V624L192 615L360 136L522 614L434 624V669H665V628L578 616L367 -7H323L90 619L15 628Z" />
<glyph unicode="W" glyph-name="W" horiz-adv-x="962" d="M726 628V669H953V628L869 616L700 -7H657L484 511L321 -7H278L98 618L15 628V669H287V628L195 617L318 158L470 616L370 628V669H642V628L541 616L690 153L817 615L726 628Z" />
<glyph unicode="X" glyph-name="X" horiz-adv-x="648" d="M19 628V669H300V628L212 618L340 404L473 616L388 628V669H617V628L529 617L365 363L553 51L639 41V0H356V41L448 52L308 284L161 52L239 41V0H10V41L105 53L284 324L107 618L19 628Z" />
<glyph unicode="Y" glyph-name="Y" horiz-adv-x="633" d="M15 628V669H297V628L202 617L341 314L484 616L394 628V669H623V628L535 615L365 263Q365 205 365 153T367 52L469 41V0H167V41L269 52Q271 99 271 150T271 259L94 619L15 628Z" />
<glyph unicode="Z" glyph-name="Z" horiz-adv-x="551" d="M20 0V36L398 619H118L91 491H30L38 669H509V634L132 50H443L470 178H531L523 0H20Z" />
<glyph unicode="[" glyph-name="bracketleft" horiz-adv-x="320" d="M103 158V398Q103 477 103 556T100 715H291V674L178 661Q177 597 177 531T176 398V158Q176 93 176 27T178 -105L291 -118V-159H100Q102 -82 102 -2T103 158Z" />
<glyph unicode="\" glyph-name="backslash" horiz-adv-x="330" d="M328 -160H269L2 710H61L328 -160Z" />
<glyph unicode="]" glyph-name="bracketright" horiz-adv-x="320" d="M217 398V158Q217 79 217 0T220 -159H29V-118L142 -105Q144 -40 144 26T144 158V398Q144 463 144 529T142 661L29 674V715H220Q218 638 218 558T217 398Z" />
<glyph unicode="^" glyph-name="asciicircum" horiz-adv-x="531" d="M88 242L235 481H299L446 242L401 208L267 421L133 208L88 242Z" />
<glyph unicode="_" glyph-name="underscore" horiz-adv-x="512" d="M40 -66V0H472V-66H40Z" />
<glyph unicode="`" glyph-name="grave" horiz-adv-x="400" d="M256 576L230 557Q199 584 170 610T109 665Q88 685 82 697T75 720Q75 740 86 749T113 758Q127 758 140 749T167 717Q191 681 212 646T256 576Z" />
<glyph unicode="a" glyph-name="a" horiz-adv-x="509" d="M416 -10Q380 -10 356 11T326 67Q285 27 254 7T179 -13Q124 -13 85 18T45 112Q45 141 58 166T108 215T211 263Q234 271 264 280T324 296V321Q324 394 302 418T230 442Q219 442 206 441T176 436L157 371Q143
323 105 323Q63 323 58 364Q72 421 124 454T253 488Q332 488 370 449T408 314V101Q408 69 418 56T444 42Q457 42 466 48T483 64L503 42Q485 13 464 2T416 -10ZM134 127Q134 87 157 70T214 53Q229 53 242 57T275 72T324 106V259Q298 252 273 244T232 229Q189 212
168 194T141 159T134 127Z" />
<glyph unicode="b" glyph-name="b" horiz-adv-x="577" d="M30 0V36L105 49Q106 87 106 131T107 210V649L25 659V694L178 739L192 731L188 589V411Q224 451 262 469T342 488Q395 488 438 459T506 375T532 242Q532 165 505 108T432 19T326 -13Q291 -13 256 2T188
58L180 -10L30 0ZM315 431Q292 431 262 419T191 373V99Q222 70 252 57T310 44Q363 44 402 90T442 234Q442 330 407 380T315 431Z" />
<glyph unicode="c" glyph-name="c" horiz-adv-x="488" d="M267 -13Q164 -13 103 54T42 236Q42 315 74 371T160 458T273 488Q318 488 356 471T419 425T450 358Q443 320 404 320Q379 320 367 333T349 368L331 434Q317 439 304 440T277 442Q213 442 172 392T130 246Q130
152 175 102T290 52Q333 52 369 71T428 128L453 115Q432 53 385 20T267 -13Z" />
<glyph unicode="d" glyph-name="d" horiz-adv-x="567" d="M135 235Q135 137 174 91T274 44Q307 44 332 57T386 102V379Q352 409 325 420T273 431Q236 431 205 411T154 347T135 235ZM396 -10L389 59Q363 25 330 6T249 -13Q188 -13 142 18T71 104T45 233Q45 310
73 367T149 456T258 488Q293 488 325 474T389 423V649L304 659V694L460 739L474 731L470 589V48L551 36V0L396 -10Z" />
<glyph unicode="e" glyph-name="e" horiz-adv-x="510" d="M269 442Q241 442 213 426T164 375T137 282H319Q355 282 366 297T378 334Q378 363 364 387T325 427T269 442ZM268 -13Q167 -13 106 52T45 233Q45 310 76 367T160 456T275 488Q327 488 369 465T436 400T461
296Q461 279 459 265T454 240H135Q137 148 181 100T297 52Q345 52 377 71T436 122L460 103Q432 50 384 19T268 -13Z" />
<glyph unicode="f" glyph-name="f" horiz-adv-x="354" d="M36 0V36L115 50Q116 90 116 130T117 210V422H34V466L119 477Q126 557 141 606T194 693Q226 725 261 737T330 749Q365 749 392 737T426 695Q425 676 409 663T365 650Q329 650 293 680L265 702Q261 699
258 696T251 690Q225 664 212 612T200 475H338V422H202V210Q202 170 202 131T204 51L294 36V0H36Z" />
<glyph unicode="g" glyph-name="g" horiz-adv-x="518" d="M237 200Q285 200 312 236T339 327Q339 380 314 413T241 447Q194 447 167 413T140 323Q140 268 165 234T237 200ZM239 160Q200 160 165 171Q140 139 140 107Q140 87 151 75T198 63H329Q412 63 451 29T490
-66Q490 -109 463 -149T380 -214T243 -239Q134 -239 85 -205T36 -118Q36 -86 57 -59T134 -4Q68 14 68 72Q68 96 83 122T136 183Q100 203 80 238T59 324Q59 403 110 445T240 488Q319 488 367 449L480 488L495 478V415H397Q420 378 420 324Q420 245 369 203T239 160ZM118
-102Q118 -151 153 -172T247 -193Q329 -193 372 -164T415 -92Q415 -59 392 -37T315 -14H198Q188 -14 178 -14T157 -12Q136 -34 127 -55T118 -102Z" />
<glyph unicode="h" glyph-name="h" horiz-adv-x="601" d="M30 0V36L105 50Q106 88 106 132T107 210V649L25 659V694L178 739L192 731L188 589V396Q225 437 274 462T371 488Q436 488 467 445T499 303V210Q499 176 499 132T501 50L571 36V0H339V36L412 49Q413 87
413 131T414 210V295Q414 364 395 390T332 416Q295 416 262 401T191 351V210Q191 177 191 133T193 50L262 36V0H30Z" />
<glyph unicode="i" glyph-name="i" horiz-adv-x="298" d="M35 0V36L110 50Q111 88 111 132T112 210V257Q112 298 112 325T109 383L29 392V427L183 488L198 478L195 342V210Q195 177 195 133T197 50L267 36V0H35ZM153 598Q125 598 106 616T86 662Q86 691 105 708T153
726Q181 726 200 709T220 662Q220 634 201 616T153 598Z" />
<glyph unicode="j" glyph-name="j" horiz-adv-x="277" d="M6 -249Q-39 -249 -60 -230T-83 -192Q-70 -151 -24 -151Q-4 -151 14 -158T51 -181L74 -198Q85 -187 90 -171Q102 -139 106 -75T111 102V257Q111 298 111 325T108 383L29 392V427L180 488L195 478L192 342V100Q192
19 188 -37T171 -130T130 -195Q104 -221 77 -235T6 -249ZM152 598Q124 598 105 616T85 662Q85 691 104 708T152 726Q181 726 200 709T220 662Q220 634 201 616T152 598Z" />
<glyph unicode="k" glyph-name="k" horiz-adv-x="547" d="M25 0V36L105 50Q106 90 106 130T107 210V649L25 659V694L181 739L195 731L191 589V240L362 418L288 436V475H521V436L427 422L317 309L481 48L547 36V0H411L257 248L191 180Q191 148 191 115T193 50L273
36V0H25Z" />
<glyph unicode="l" glyph-name="l" horiz-adv-x="298" d="M25 0V36L105 50Q106 91 106 130T107 210V649L25 659V694L181 739L195 731L191 589V210Q191 170 191 130T193 50L273 36V0H25Z" />
<glyph unicode="m" glyph-name="m" horiz-adv-x="901" d="M40 0V36L114 50Q115 88 115 132T116 210V258Q116 299 116 326T113 383L34 392V427L174 488L189 478L197 397Q232 437 279 462T372 488Q419 488 448 466T491 394Q529 441 576 464T672 488Q733 488 766
447T800 313V210Q800 176 800 132T802 50L872 36V0H640V36L714 50Q715 87 715 131T716 210V297Q716 367 696 391T632 416Q601 416 569 402T498 353Q499 342 499 330T500 303V210Q500 176 500 132T502 50L572 36V0H340V36L414 50Q415 87 415 131T416 210V295Q416
363 397 389T334 416Q300 416 269 402T201 356V210Q201 177 201 133T203 50L272 36V0H40Z" />
<glyph unicode="n" glyph-name="n" horiz-adv-x="606" d="M40 0V36L114 50Q115 88 115 132T116 210V258Q116 299 116 326T113 383L34 392V427L174 488L189 478L197 398Q234 438 282 463T376 488Q441 488 472 445T504 303V210Q504 176 504 132T506 50L576 36V0H344V36L418
50Q419 87 419 131T420 210V295Q420 364 401 390T337 416Q303 416 271 402T201 356V210Q201 177 201 133T203 50L272 36V0H40Z" />
<glyph unicode="o" glyph-name="o" horiz-adv-x="549" d="M274 -13Q216 -13 164 14T78 97T45 235Q45 318 78 374T163 459T274 488Q332 488 384 460T470 375T504 235Q504 153 471 98T385 15T274 -13ZM274 32Q339 32 374 83T409 235Q409 336 374 389T274 442Q209
442 175 389T140 235Q140 135 174 84T274 32Z" />
<glyph unicode="p" glyph-name="p" horiz-adv-x="583" d="M35 -239V-204L115 -190Q116 -149 116 -109T117 -28V258Q117 299 117 326T114 383L35 392V427L175 488L190 478L196 413Q267 488 347 488Q401 488 444 458T512 373T538 239Q538 162 511 106T438 18T332
-13Q298 -13 265 1T199 52V-27Q199 -67 199 -107T201 -189L292 -204V-239H35ZM323 431Q300 431 270 420T202 376V95Q230 68 257 56T312 44Q368 44 408 89T448 231Q448 327 413 379T323 431Z" />
<glyph unicode="q" glyph-name="q" horiz-adv-x="557" d="M135 234Q135 136 174 90T274 44Q307 44 334 58T390 107V376Q354 408 327 419T273 431Q236 431 205 410T154 346T135 234ZM249 -13Q188 -13 142 18T71 104T45 232Q45 309 72 366T148 456T255 488Q290 488
324 473T393 419L461 488L477 478L474 343V-27Q474 -67 474 -108T476 -190L556 -204V-239H299V-204L391 -189Q392 -148 392 -108T393 -27V65Q364 25 329 6T249 -13Z" />
<glyph unicode="r" glyph-name="r" horiz-adv-x="423" d="M42 0V36L114 49Q115 87 115 131T116 210V258Q116 299 116 326T113 383L34 392V427L174 488L189 478L200 360Q225 420 264 454T344 488Q367 488 387 478T416 451Q416 378 357 378Q340 378 325 384T296
403L284 414Q254 392 234 360T201 285V210Q201 177 201 133T203 51L285 36V0H42Z" />
<glyph unicode="s" glyph-name="s" horiz-adv-x="434" d="M200 -13Q158 -13 123 -4T51 25L47 135H102L121 48Q156 32 202 32Q259 32 286 53T314 108Q314 140 291 159T221 195L175 212Q120 232 87 264T54 347Q54 384 74 416T133 468T228 488Q269 488 302 478T368
447L364 345H312L296 425Q262 442 227 442Q181 442 158 424T134 374Q134 341 154 324T226 288L257 277Q332 249 363 213T395 130Q395 92 373 60T308 7T200 -13Z" />
<glyph unicode="t" glyph-name="t" horiz-adv-x="325" d="M205 -13Q153 -13 122 15T91 101Q91 120 91 138T92 186V422H9V466L98 477L124 611H184L178 475H313V422H177V112Q177 74 192 57T232 39Q249 39 264 46T299 66L323 40Q282 -13 205 -13Z" />
<glyph unicode="u" glyph-name="u" horiz-adv-x="583" d="M223 -13Q162 -13 127 27T93 167L96 416L25 431V467L172 481L182 471L177 331V176Q177 111 197 85T257 58Q327 58 397 123L400 417L329 431V467L474 481L484 471L481 331V50L549 36V0L410 -8L400 81Q360
32 315 10T223 -13Z" />
<glyph unicode="v" glyph-name="v" horiz-adv-x="505" d="M306 436V475H496V436L441 423L279 -6H236L54 426L0 436V475H242V436L154 423L276 103L387 422L306 436Z" />
<glyph unicode="w" glyph-name="w" horiz-adv-x="764" d="M571 436V475H754V436L700 423L554 -6H517L387 349L255 -6H218L57 426L0 436V475H228V436L150 424L253 117L365 424L291 436V475H512V436L438 423L552 118L645 422L571 436Z" />
<glyph unicode="x" glyph-name="x" horiz-adv-x="526" d="M316 436V475H503V436L444 425L301 249L440 50L516 36V0H272V36L343 49L245 192L135 49L210 36V0H10V36L74 48L220 229L86 425L17 436V475H240V436L179 425L275 286L382 423L316 436Z" />
<glyph unicode="y" glyph-name="y" horiz-adv-x="512" d="M317 439V475H512V439L458 428L297 3Q247 -130 201 -189T92 -249Q55 -249 28 -231T0 -183Q5 -161 24 -150T67 -139Q87 -139 104 -147T141 -177L146 -182Q178 -155 200 -117T236 -38L240 -26L59 431L4 439V475H244V438L156
428L281 87L404 427L317 439Z" />
<glyph unicode="z" glyph-name="z" horiz-adv-x="456" d="M29 0V35L316 432H114L87 321L35 325L43 475H416V439L130 42H349L379 163H431L421 0H29Z" />
<glyph unicode="{" glyph-name="braceleft" horiz-adv-x="344" d="M40 258V298Q103 306 131 329T159 390Q159 417 149 448T128 516T117 594Q117 653 157 684T269 715H314V675L287 672Q235 666 213 650T190 590Q190 533 201 482T212 401Q212 353 190 321T119 278Q168
268 190 236T212 155Q212 125 201 74T190 -34Q190 -77 212 -93T287 -116L314 -119V-159H269Q198 -159 158 -128T117 -38Q117 4 127 40T148 107T159 166Q159 204 131 227T40 258Z" />
<glyph unicode="|" glyph-name="bar" horiz-adv-x="251" d="M96 -250V750H155V-250H96Z" />
<glyph unicode="}" glyph-name="braceright" horiz-adv-x="344" d="M304 298V258Q241 250 213 227T185 166Q185 139 195 108T216 40T227 -38Q227 -97 187 -128T75 -159H30V-119L57 -116Q109 -110 131 -94T154 -34Q154 23 143 74T132 155Q132 203 154 235T225 278Q176
289 154 321T132 401Q132 431 143 482T154 590Q154 634 132 650T57 672L30 675V715H75Q146 715 186 684T227 594Q227 553 217 517T196 449T185 390Q185 353 213 330T304 298Z" />
<glyph unicode="~" glyph-name="asciitilde" horiz-adv-x="531" d="M285 367Q308 344 328 335T368 326Q389 326 407 345T432 417L482 409Q474 268 362 268Q302 268 247 323Q223 347 203 355T163 364Q142 364 125 345T100 273L49 281Q58 422 169 422Q229 422 285 367Z" />
<glyph unicode="&#xa0;" glyph-name="space" horiz-adv-x="233" />
<glyph unicode="&#xa1;" glyph-name="exclamdown" horiz-adv-x="289" d="M144 488Q171 488 190 469T209 423Q209 397 190 378T144 358Q117 358 99 377T80 423Q80 449 98 468T144 488ZM144 -209Q118 -209 103 -194T87 -146Q87 -118 94 -50T112 123L126 260H163L176
123Q187 19 194 -49T202 -146Q202 -179 187 -194T144 -209Z" />
<glyph unicode="&#xa2;" glyph-name="cent" horiz-adv-x="500" d="M289 -45H248V63Q155 69 99 136T43 314Q43 387 71 441T146 527T248 566V660H289V568Q352 564 398 528T453 438Q445 400 406 400Q382 400 367 418T342 476L333 515Q322 518 311 520T289 523V126Q332
128 370 148T431 204L455 191Q436 134 395 101T289 63V-45ZM130 323Q130 241 162 192T248 130V520Q196 509 163 459T130 323Z" />
<glyph unicode="&#xa3;" glyph-name="sterling" horiz-adv-x="500" d="M35 0V52Q88 82 117 137T147 250Q147 269 144 284H41V335H129Q117 367 104 398T90 475Q90 528 114 569T180 635T277 659Q323 659 362 641T425 589T452 513Q440 481 406 481Q385 481 370 495T347
548L333 609Q321 612 311 613T292 614Q246 614 214 583T182 479Q182 436 188 403T199 335H384V284H204Q205 277 205 271T205 257Q204 196 185 154T129 82H466V0H35Z" />
<glyph unicode="&#xa4;" glyph-name="currency" horiz-adv-x="502" d="M143 329Q143 280 175 249T251 217Q295 217 327 248T359 329Q359 379 327 409T251 440Q207 440 175 410T143 329ZM86 329Q86 361 96 387T123 434L87 456Q53 476 41 489T29 515Q29 530 39 540T65
551Q79 551 92 539T124 493L146 456Q191 492 251 492Q311 492 356 456L378 493Q398 527 411 539T437 551Q452 551 463 541T474 515Q474 502 462 489T416 456L379 434Q396 414 406 388T416 329Q416 298 406 271T379 224L416 202Q450 182 462 170T474 143Q474 128
463 117T437 106Q424 106 411 118T378 164L356 201Q310 166 251 166Q192 166 146 201L124 164Q105 130 92 118T65 106Q50 106 40 116T29 143Q29 157 41 169T87 202L123 224Q106 244 96 271T86 329Z" />
<glyph unicode="&#xa5;" glyph-name="yen" horiz-adv-x="500" d="M50 148V198H210V270H50V320H188L57 598L-11 607V646H232V607L155 597L271 329L392 596L319 607V646H511V607L440 595L314 320H457V270H291L290 267V198H457V148H290Q290 124 290 101T292 51L397
40V0H105V40L208 51Q209 76 209 100T210 148H50Z" />
<glyph unicode="&#xa6;" glyph-name="brokenbar" horiz-adv-x="251" d="M96 -250V200H155V-250H96ZM155 320H96V750H155V320Z" />
<glyph unicode="&#xa7;" glyph-name="section" horiz-adv-x="491" d="M263 684Q309 684 345 669T403 629T425 574Q418 555 406 547T378 538Q356 538 341 551T311 593L289 638Q285 639 281 639T271 639Q217 639 192 616T167 563Q167 517 203 490T289 440Q366 406
406 370T446 272Q446 229 425 197T366 141Q382 122 391 101T400 52Q400 13 380 -22T321 -79T226 -101Q181 -101 145 -86T87 -45T66 10Q73 30 85 37T113 45Q135 45 150 32T179 -9L202 -54Q206 -55 210 -55T218 -55Q273 -55 298 -30T324 30Q324 71 292 94T201 146Q156
168 121 190T66 242T45 318Q45 398 126 445Q90 488 90 542Q90 577 108 609T165 663T263 684ZM239 224Q266 212 292 198T339 166Q356 183 365 205T375 249Q375 291 340 314T249 362Q186 391 151 421Q115 388 115 343Q115 313 133 292T179 255T239 224Z" />
<glyph unicode="&#xa8;" glyph-name="dieresis" horiz-adv-x="400" d="M95 596Q71 596 54 612T36 653Q36 677 53 693T95 710Q120 710 137 694T155 653Q155 628 138 612T95 596ZM305 596Q280 596 263 612T245 653Q245 677 262 693T305 710Q329 710 346 694T364
653Q364 628 347 612T305 596Z" />
<glyph unicode="&#xa9;" glyph-name="copyright" horiz-adv-x="755" d="M81 337Q81 241 120 171T227 63T378 25Q462 25 529 63T636 171T675 337Q675 433 636 501T530 607T378 644Q294 644 227 608T121 502T81 337ZM30 337Q30 446 76 523T202 642T378 684Q475 684
553 643T678 524T725 337Q725 228 679 149T554 28T378 -15Q281 -15 202 27T77 149T30 337ZM402 175Q413 175 428 177T460 186L471 257H515L512 162Q459 134 394 134Q336 134 292 160T223 232T198 337Q198 396 223 442T293 514T393 541Q425 541 451 536T507 513L509
418H466L455 490Q441 497 428 499T402 502Q347 502 309 460T271 338Q271 258 307 217T402 175Z" />
<glyph unicode="&#xaa;" glyph-name="ordfeminine" horiz-adv-x="351" d="M284 488Q284 457 304 457Q317 457 330 472L345 459Q334 436 319 427T283 418Q255 418 239 432T218 470Q192 444 171 430T118 416Q80 416 54 437T28 499Q28 530 51 555T144 602Q161 607
179 612T216 622V640Q216 686 203 702T154 718Q141 718 123 715L113 677Q101 633 72 633Q42 633 37 663Q45 701 81 725T175 749Q231 749 257 722T284 631V488ZM98 512Q98 486 114 475T149 463Q164 463 177 470T216 496V596Q201 592 187 588T160 579Q123 566 111
549T98 512Z" />
<glyph unicode="&#xab;" glyph-name="guillemotleft" horiz-adv-x="487" d="M235 50L30 226V279L235 455L259 428L109 252L259 77L235 50ZM437 50L232 226V279L437 455L461 428L311 252L461 77L437 50Z" />
<glyph unicode="&#xac;" glyph-name="logicalnot" horiz-adv-x="531" d="M24 343V400H497V159H435V343H24Z" />
<glyph unicode="&#xad;" glyph-name="hyphen" horiz-adv-x="312" d="M40 218V284H272V218H40Z" />
<glyph unicode="&#xae;" glyph-name="registered" horiz-adv-x="459" d="M65 516Q65 465 87 427T147 369T229 348Q274 348 311 368T371 427T394 516Q394 567 372 604T312 661T229 681Q185 681 148 661T88 604T65 516ZM30 516Q30 578 57 621T130 688T229 712Q283
712 328 689T401 622T429 516Q429 455 402 410T329 341T229 317Q174 317 129 341T57 410T30 516ZM336 434V419Q319 415 306 415Q287 415 279 420T267 441L258 484Q254 508 223 508H209V437L237 434V419H137V434L166 437V601L137 604V620H232Q268 620 288 606T308
569Q308 553 297 539T259 517Q297 509 304 478L312 437L336 434ZM222 603H209V525H222Q244 525 253 537T262 565Q262 603 222 603Z" />
<glyph unicode="&#xaf;" glyph-name="overscore" horiz-adv-x="400" d="M69 596V659H331V596H69Z" />
<glyph unicode="&#xb0;" glyph-name="degree" horiz-adv-x="328" d="M164 464Q200 464 224 490T249 555Q249 594 225 621T164 649Q128 649 104 622T79 555Q79 516 103 490T164 464ZM164 428Q112 428 75 462T37 555Q37 614 74 649T164 684Q216 684 253 649T291
555Q291 497 254 463T164 428Z" />
<glyph unicode="&#xb1;" glyph-name="plusminus" horiz-adv-x="531" d="M502 0H29V58H502V0ZM235 98V302H29V360H235V558H296V360H502V302H296V98H235Z" />
<glyph unicode="&#xb2;" glyph-name="two.sups" horiz-adv-x="370" d="M54 425V475L147 564Q191 607 213 644T235 719Q235 757 215 777T160 797Q154 797 148 797T134 795L124 756Q117 727 108 717T85 706Q61 706 48 730Q52 781 93 806T187 831Q252 831 280 799T308
727Q308 698 295 672T253 615T179 542L128 495H323V425H54Z" />
<glyph unicode="&#xb3;" glyph-name="three.sups" horiz-adv-x="370" d="M129 653H154Q236 653 236 725Q236 760 217 778T163 797Q158 797 152 797T139 795L132 759Q128 737 118 727T93 717Q70 717 59 738Q65 786 100 808T183 831Q239 831 273 804T307 733Q307
698 287 671T232 635Q325 618 325 531Q325 490 304 465T250 428T179 416Q121 416 87 440T45 511Q50 526 60 531T80 537Q94 537 104 528T119 489L127 453Q142 449 160 449Q204 449 228 471T252 534Q252 571 230 592T159 613H129V653Z" />
<glyph unicode="&#xb4;" glyph-name="acute" horiz-adv-x="400" d="M140 576Q182 647 229 717Q243 740 256 749T283 758Q297 758 309 749T321 720Q321 710 315 698T287 665Q256 637 227 611T166 557L140 576Z" />
<glyph unicode="&#xb5;" glyph-name="mu" horiz-adv-x="569" d="M79 -180L100 102L85 469L170 488L181 478Q177 395 173 335T166 230T162 147Q185 97 214 81T271 64Q309 64 338 85T393 170L387 469L473 488L483 478Q475 378 470 315T462 212T460 136Q462 89 471
73T505 56Q515 56 526 58T546 65L555 40Q543 18 522 3T471 -13Q431 -13 415 17T395 102Q370 41 336 14T261 -13Q232 -13 201 6T149 64L174 -172L91 -190L79 -180Z" />
<glyph unicode="&#xb6;" glyph-name="paragraph" horiz-adv-x="598" d="M316 623V149Q224 150 159 183T59 276T25 412Q25 490 65 547T180 637T355 669H554V628L462 617Q461 554 461 489T460 359V181Q460 104 460 26T463 -129H381Q383 -53 383 24T384 181V623H316Z" />
<glyph unicode="&#xb7;" glyph-name="middot" horiz-adv-x="300" d="M150 261Q120 261 100 282T79 332Q79 362 99 383T150 404Q180 404 200 383T221 332Q221 303 201 282T150 261Z" />
<glyph unicode="&#xb8;" glyph-name="cedilla" horiz-adv-x="400" d="M146 -86L159 3H196L188 -58Q226 -64 253 -84T280 -140Q280 -174 252 -197T168 -220Q146 -220 131 -217T105 -211L112 -180Q136 -183 160 -183Q218 -183 218 -138Q218 -115 201 -103T146 -86Z" />
<glyph unicode="&#xb9;" glyph-name="one.sups" horiz-adv-x="370" d="M79 796L218 828L227 822V470L315 454V425H66V454L156 470V765L79 759V796Z" />
<glyph unicode="&#xba;" glyph-name="ordmasculine" horiz-adv-x="377" d="M189 714Q98 714 98 582Q98 514 121 482T189 450Q232 450 255 482T279 582Q279 649 256 681T189 714ZM189 749Q230 749 266 729T326 672T349 582Q349 529 327 492T268 435T189 415Q147
415 111 435T51 492T28 582Q28 635 51 672T111 729T189 749Z" />
<glyph unicode="&#xbb;" glyph-name="guillemotright" horiz-adv-x="487" d="M50 455L255 279V226L50 50L26 77L176 252L26 428L50 455ZM252 455L457 279V226L252 50L228 77L378 252L228 428L252 455Z" />
<glyph unicode="&#xbc;" glyph-name="onequarter" horiz-adv-x="861" d="M238 -25L207 0L672 669L703 644L238 -25ZM80 624L219 656L228 650V298L316 282V253H67V282L157 298V593L80 587V624ZM480 101V147L668 403H715V158H779V101H715V0H650V101H480ZM529 158H650V331L529
158Z" />
<glyph unicode="&#xbd;" glyph-name="onehalf" horiz-adv-x="861" d="M206 -25L175 0L640 669L671 644L206 -25ZM72 624L211 656L220 650V298L308 282V253H59V282L149 298V593L72 587V624ZM518 0V50L611 139Q655 182 677 219T699 294Q699 332 679 352T624 372Q618
372 612 372T598 370L588 331Q581 302 572 292T549 281Q525 281 512 305Q516 356 557 381T651 406Q716 406 744 374T772 302Q772 273 759 247T717 190T643 117L592 70H787V0H518Z" />
<glyph unicode="&#xbe;" glyph-name="threequarters" horiz-adv-x="861" d="M247 -25L216 0L681 669L712 644L247 -25ZM162 481H187Q269 481 269 553Q269 588 250 606T196 625Q191 625 185 625T172 623L165 587Q161 565 151 555T126 545Q103 545 92 566Q98 614
133 636T216 659Q272 659 306 632T340 561Q340 526 320 499T265 463Q358 446 358 359Q358 318 337 293T283 256T212 244Q154 244 120 268T78 339Q83 354 93 359T113 365Q127 365 137 356T152 317L160 281Q175 277 193 277Q237 277 261 299T285 362Q285 399 263
420T192 441H162V481ZM489 101V147L677 403H724V158H788V101H724V0H659V101H489ZM538 158H659V331L538 158Z" />
<glyph unicode="&#xbf;" glyph-name="questiondown" horiz-adv-x="416" d="M267 489Q294 489 312 470T331 424Q331 398 313 379T267 359Q240 359 221 378T202 424Q202 450 221 469T267 489ZM66 15Q66 109 166 141L200 153Q232 163 239 173T247 208V263H286L298
221Q307 192 310 176T314 151Q314 129 296 114T234 85L177 67Q121 48 121 -2Q121 -21 128 -39T147 -76L278 -99Q322 -107 336 -120T350 -153Q350 -176 336 -188T295 -208Q263 -205 224 -188T149 -142T90 -73T66 15Z" />
<glyph unicode="&#xc0;" glyph-name="Agrave" horiz-adv-x="664" d="M309 562L208 264H409L309 562ZM5 0V41L89 54L302 674H365L578 50L653 41V0H381V41L479 53L424 217H192L136 54L234 41V0H5ZM397 745L379 720Q347 737 316 754T253 787Q225 803 214 816T203
843Q203 858 214 867T241 877Q254 877 268 869T303 839Q352 793 397 745Z" />
<glyph unicode="&#xc1;" glyph-name="Aacute" horiz-adv-x="664" d="M309 562L208 264H409L309 562ZM5 0V41L89 54L302 674H365L578 50L653 41V0H381V41L479 53L424 217H192L136 54L234 41V0H5ZM266 745Q312 794 360 839Q381 860 395 868T422 877Q438 877 449
868T460 843Q460 830 450 817T410 788Q379 771 348 754T284 720L266 745Z" />
<glyph unicode="&#xc2;" glyph-name="Acircumflex" horiz-adv-x="664" d="M309 562L208 264H409L309 562ZM5 0V41L89 54L302 674H365L578 50L653 41V0H381V41L479 53L424 217H192L136 54L234 41V0H5ZM349 837L480 722L461 697L332 771L203 697L184 722L315 837H349Z" />
<glyph unicode="&#xc3;" glyph-name="Atilde" horiz-adv-x="664" d="M309 562L208 264H409L309 562ZM5 0V41L89 54L302 674H365L578 50L653 41V0H381V41L479 53L424 217H192L136 54L234 41V0H5ZM151 734Q160 793 185 828T256 863Q283 863 302 853T340 826Q357
813 374 797T413 781Q438 781 454 802T481 861L511 851Q501 793 477 758T407 723Q379 723 361 733T325 756Q306 772 289 788T249 804Q225 804 209 783T181 725L151 734Z" />
<glyph unicode="&#xc4;" glyph-name="Adieresis" horiz-adv-x="664" d="M309 562L208 264H409L309 562ZM5 0V41L89 54L302 674H365L578 50L653 41V0H381V41L479 53L424 217H192L136 54L234 41V0H5ZM220 744Q197 744 180 759T162 799Q162 823 179 838T220 854Q244
854 260 839T277 799Q277 775 261 760T220 744ZM443 744Q419 744 403 759T386 799Q386 823 402 838T443 854Q466 854 483 839T501 799Q501 775 484 760T443 744Z" />
<glyph unicode="&#xc5;" glyph-name="Aring" horiz-adv-x="664" d="M309 562L208 264H409L309 562ZM5 0V41L89 54L302 674H365L578 50L653 41V0H381V41L479 53L424 217H192L136 54L234 41V0H5ZM332 722Q295 722 266 746T236 814Q236 858 265 882T332 907Q369 907
398 883T428 814Q428 771 399 747T332 722ZM332 757Q357 757 370 775T384 814Q384 836 371 853T332 870Q307 870 294 853T280 814Q280 793 293 775T332 757Z" />
<glyph unicode="&#xc6;" glyph-name="AE" horiz-adv-x="920" d="M277 295H458V613H448L277 295ZM5 0V41L88 52L395 617L318 628V669H859L866 492H808L786 619H549Q548 555 548 491T547 365H698L712 460H758V224H712L699 318H547Q547 243 547 178T549 50H806L828
178H886L879 0H368V41L456 52Q457 99 457 148T458 249H252L147 54L234 41V0H5Z" />
<glyph unicode="&#xc7;" glyph-name="Ccedilla" horiz-adv-x="631" d="M386 -15Q285 -15 209 29T90 153T47 335Q47 411 72 474T143 585T250 658T385 684Q426 684 477 675T578 636L582 491H520L500 607Q473 622 448 628T398 634Q331 634 276 600T189 500T156 335Q156
237 186 170T269 69T391 35Q420 35 450 41T510 62L530 178H592L588 33Q542 8 491 -3T386 -15ZM340 -86L353 3H390L382 -58Q420 -64 447 -84T474 -140Q474 -174 446 -197T362 -220Q340 -220 325 -217T299 -211L306 -180Q330 -183 354 -183Q412 -183 412 -138Q412
-115 395 -103T340 -86Z" />
<glyph unicode="&#xc8;" glyph-name="Egrave" horiz-adv-x="603" d="M44 628V669H542L549 492H492L470 619H235Q234 555 234 491T233 365H380L394 460H440V224H394L381 318H233Q233 243 233 178T235 50H490L512 178H569L562 0H44V41L136 52Q138 115 138 180T138
310V359Q138 424 138 488T136 617L44 628ZM368 745L350 720Q318 737 287 754T224 787Q196 803 185 816T174 843Q174 858 185 867T212 877Q225 877 239 869T274 839Q323 793 368 745Z" />
<glyph unicode="&#xc9;" glyph-name="Eacute" horiz-adv-x="603" d="M44 628V669H542L549 492H492L470 619H235Q234 555 234 491T233 365H380L394 460H440V224H394L381 318H233Q233 243 233 178T235 50H490L512 178H569L562 0H44V41L136 52Q138 115 138 180T138
310V359Q138 424 138 488T136 617L44 628ZM274 745Q320 794 368 839Q389 860 403 868T430 877Q446 877 457 868T468 843Q468 830 458 817T418 788Q387 771 356 754T292 720L274 745Z" />
<glyph unicode="&#xca;" glyph-name="Ecircumflex" horiz-adv-x="603" d="M44 628V669H542L549 492H492L470 619H235Q234 555 234 491T233 365H380L394 460H440V224H394L381 318H233Q233 243 233 178T235 50H490L512 178H569L562 0H44V41L136 52Q138 115 138 180T138
310V359Q138 424 138 488T136 617L44 628ZM358 856L489 741L470 716L341 790L212 716L193 741L324 856H358Z" />
<glyph unicode="&#xcb;" glyph-name="Edieresis" horiz-adv-x="603" d="M44 628V669H542L549 492H492L470 619H235Q234 555 234 491T233 365H380L394 460H440V224H394L381 318H233Q233 243 233 178T235 50H490L512 178H569L562 0H44V41L136 52Q138 115 138 180T138
310V359Q138 424 138 488T136 617L44 628ZM213 744Q190 744 173 759T155 799Q155 823 172 838T213 854Q237 854 253 839T270 799Q270 775 254 760T213 744ZM436 744Q412 744 396 759T379 799Q379 823 395 838T436 854Q459 854 476 839T494 799Q494 775 477 760T436
744Z" />
<glyph unicode="&#xcc;" glyph-name="Igrave" horiz-adv-x="371" d="M44 628V669H327V628L235 617Q234 554 234 489T233 359V310Q233 246 233 182T235 52L327 41V0H44V41L136 52Q138 115 138 180T138 310V359Q138 424 138 488T136 617L44 628ZM252 745L234 720Q202
737 171 754T108 787Q80 803 69 816T58 843Q58 858 69 867T96 877Q109 877 123 869T158 839Q207 793 252 745Z" />
<glyph unicode="&#xcd;" glyph-name="Iacute" horiz-adv-x="371" d="M44 628V669H327V628L235 617Q234 554 234 489T233 359V310Q233 246 233 182T235 52L327 41V0H44V41L136 52Q138 115 138 180T138 310V359Q138 424 138 488T136 617L44 628ZM138 745Q184 794
232 839Q253 860 267 868T294 877Q310 877 321 868T332 843Q332 830 322 817T282 788Q251 771 220 754T156 720L138 745Z" />
<glyph unicode="&#xce;" glyph-name="Icircumflex" horiz-adv-x="371" d="M44 628V669H327V628L235 617Q234 554 234 489T233 359V310Q233 246 233 182T235 52L327 41V0H44V41L136 52Q138 115 138 180T138 310V359Q138 424 138 488T136 617L44 628ZM202 856L333
741L314 716L185 790L56 716L37 741L168 856H202Z" />
<glyph unicode="&#xcf;" glyph-name="Idieresis" horiz-adv-x="371" d="M92 744Q70 744 53 759T36 799Q36 823 53 838T92 854Q117 854 133 839T149 799Q149 775 133 760T92 744ZM279 744Q254 744 238 759T222 799Q222 823 238 838T279 854Q302 854 319 839T336
799Q336 775 319 760T279 744ZM44 628V669H327V628L235 617Q234 554 234 489T233 359V310Q233 246 233 182T235 52L327 41V0H44V41L136 52Q138 115 138 180T138 310V359Q138 424 138 488T136 617L44 628Z" />
<glyph unicode="&#xd0;" glyph-name="Eth" horiz-adv-x="710" d="M386 319H233Q233 243 233 177T235 47H314Q430 47 492 122T554 334Q554 475 493 549T323 623H235Q234 559 234 494T233 366H386V319ZM44 628V669H339Q435 669 508 631T622 518T663 334Q663 226
618 152T496 39T320 0H44V41L136 52Q138 116 138 182T138 319H44V366H138Q138 432 138 494T136 617L44 628Z" />
<glyph unicode="&#xd1;" glyph-name="Ntilde" horiz-adv-x="735" d="M454 628V669H695V628L610 615V-7H575L175 538V55L281 41V0H39V41L124 53V608L115 620L44 628V669H198L559 173V615L454 628ZM196 724Q205 783 230 818T301 853Q328 853 347 843T385 816Q402
803 419 787T458 771Q483 771 499 792T526 851L556 841Q546 783 522 748T452 713Q424 713 406 723T370 746Q351 762 334 778T294 794Q270 794 254 773T226 715L196 724Z" />
<glyph unicode="&#xd2;" glyph-name="Ograve" horiz-adv-x="707" d="M354 -15Q296 -15 241 7T142 74T73 183T47 335Q47 417 73 482T142 592T241 660T354 684Q412 684 466 662T564 595T634 486T660 335Q660 253 635 188T566 78T467 9T354 -15ZM354 35Q406 35 443
60T504 128T539 224T550 335Q550 391 539 444T505 541T444 609T354 634Q302 634 265 609T203 541T168 445T156 335Q156 278 167 225T203 129T264 61T354 35ZM419 745L401 720Q369 737 338 754T275 787Q247 803 236 816T225 843Q225 858 236 867T263 877Q276 877
290 869T325 839Q374 793 419 745Z" />
<glyph unicode="&#xd3;" glyph-name="Oacute" horiz-adv-x="707" d="M354 -15Q296 -15 241 7T142 74T73 183T47 335Q47 417 73 482T142 592T241 660T354 684Q412 684 466 662T564 595T634 486T660 335Q660 253 635 188T566 78T467 9T354 -15ZM354 35Q406 35 443
60T504 128T539 224T550 335Q550 391 539 444T505 541T444 609T354 634Q302 634 265 609T203 541T168 445T156 335Q156 278 167 225T203 129T264 61T354 35ZM307 745Q353 794 401 839Q422 860 436 868T463 877Q479 877 490 868T501 843Q501 830 491 817T451 788Q420
771 389 754T325 720L307 745Z" />
<glyph unicode="&#xd4;" glyph-name="Ocircumflex" horiz-adv-x="707" d="M354 -15Q296 -15 241 7T142 74T73 183T47 335Q47 417 73 482T142 592T241 660T354 684Q412 684 466 662T564 595T634 486T660 335Q660 253 635 188T566 78T467 9T354 -15ZM354 35Q406
35 443 60T504 128T539 224T550 335Q550 391 539 444T505 541T444 609T354 634Q302 634 265 609T203 541T168 445T156 335Q156 278 167 225T203 129T264 61T354 35ZM371 856L502 741L483 716L354 790L225 716L206 741L337 856H371Z" />
<glyph unicode="&#xd5;" glyph-name="Otilde" horiz-adv-x="707" d="M354 -15Q296 -15 241 7T142 74T73 183T47 335Q47 417 73 482T142 592T241 660T354 684Q412 684 466 662T564 595T634 486T660 335Q660 253 635 188T566 78T467 9T354 -15ZM354 35Q406 35 443
60T504 128T539 224T550 335Q550 391 539 444T505 541T444 609T354 634Q302 634 265 609T203 541T168 445T156 335Q156 278 167 225T203 129T264 61T354 35ZM174 734Q183 793 208 828T279 863Q306 863 325 853T363 826Q380 813 397 797T436 781Q461 781 477 802T504
861L534 851Q524 793 500 758T430 723Q402 723 384 733T348 756Q329 772 312 788T272 804Q248 804 232 783T204 725L174 734Z" />
<glyph unicode="&#xd6;" glyph-name="Odieresis" horiz-adv-x="707" d="M354 -15Q296 -15 241 7T142 74T73 183T47 335Q47 417 73 482T142 592T241 660T354 684Q412 684 466 662T564 595T634 486T660 335Q660 253 635 188T566 78T467 9T354 -15ZM354 35Q406 35
443 60T504 128T539 224T550 335Q550 391 539 444T505 541T444 609T354 634Q302 634 265 609T203 541T168 445T156 335Q156 278 167 225T203 129T264 61T354 35ZM242 744Q219 744 202 759T184 799Q184 823 201 838T242 854Q266 854 282 839T299 799Q299 775 283
760T242 744ZM465 744Q441 744 425 759T408 799Q408 823 424 838T465 854Q488 854 505 839T523 799Q523 775 506 760T465 744Z" />
<glyph unicode="&#xd7;" glyph-name="multiply" horiz-adv-x="531" d="M447 107L266 288L84 107L43 148L224 330L43 511L84 552L266 370L447 552L488 511L306 330L488 148L447 107Z" />
<glyph unicode="&#xd8;" glyph-name="Oslash" horiz-adv-x="707" d="M646 656L581 577Q617 534 638 473T660 335Q660 253 635 188T566 78T467 9T354 -15Q302 -15 251 3T159 58L95 -21L52 13L121 98Q87 142 67 201T47 335Q47 417 73 482T142 592T241 660T354 684Q405
684 454 667T543 615L604 690L646 656ZM146 335Q146 290 153 247T176 165L499 561Q474 594 438 614T354 634Q299 634 260 609T195 541T158 445T146 335ZM560 335Q560 382 552 427T527 510L205 114Q230 78 267 57T354 35Q409 35 448 60T512 128T548 224T560 335Z"
/>
<glyph unicode="&#xd9;" glyph-name="Ugrave" horiz-adv-x="727" d="M453 628V669H693V628L606 617V274Q606 169 575 106T490 14T367 -15Q295 -15 240 13T155 100T124 252V360Q124 425 124 489T122 618L39 628V669H322V628L220 616Q219 553 219 489T218 360V281Q218
196 238 147T296 77T384 56Q469 56 512 110T555 298V615L453 628ZM431 735L413 710Q381 727 350 744T287 777Q259 793 248 806T237 833Q237 848 248 857T275 867Q288 867 302 859T337 829Q386 783 431 735Z" />
<glyph unicode="&#xda;" glyph-name="Uacute" horiz-adv-x="727" d="M453 628V669H693V628L606 617V274Q606 169 575 106T490 14T367 -15Q295 -15 240 13T155 100T124 252V360Q124 425 124 489T122 618L39 628V669H322V628L220 616Q219 553 219 489T218 360V281Q218
196 238 147T296 77T384 56Q469 56 512 110T555 298V615L453 628ZM327 735Q373 784 421 829Q442 850 456 858T483 867Q499 867 510 858T521 833Q521 820 511 807T471 778Q440 761 409 744T345 710L327 735Z" />
<glyph unicode="&#xdb;" glyph-name="Ucircumflex" horiz-adv-x="727" d="M453 628V669H693V628L606 617V274Q606 169 575 106T490 14T367 -15Q295 -15 240 13T155 100T124 252V360Q124 425 124 489T122 618L39 628V669H322V628L220 616Q219 553 219 489T218 360V281Q218
196 238 147T296 77T384 56Q469 56 512 110T555 298V615L453 628ZM400 846L531 731L512 706L383 780L254 706L235 731L366 846H400Z" />
<glyph unicode="&#xdc;" glyph-name="Udieresis" horiz-adv-x="727" d="M453 628V669H693V628L606 617V274Q606 169 575 106T490 14T367 -15Q295 -15 240 13T155 100T124 252V360Q124 425 124 489T122 618L39 628V669H322V628L220 616Q219 553 219 489T218 360V281Q218
196 238 147T296 77T384 56Q469 56 512 110T555 298V615L453 628ZM285 744Q262 744 245 759T227 799Q227 823 244 838T285 854Q309 854 325 839T342 799Q342 775 326 760T285 744ZM508 744Q484 744 468 759T451 799Q451 823 467 838T508 854Q531 854 548 839T566
799Q566 775 549 760T508 744Z" />
<glyph unicode="&#xdd;" glyph-name="Yacute" horiz-adv-x="633" d="M15 628V669H297V628L202 617L341 314L484 616L394 628V669H623V628L535 615L365 263Q365 205 365 153T367 52L469 41V0H167V41L269 52Q271 99 271 150T271 259L94 619L15 628ZM305 735Q351
784 399 829Q420 850 434 858T461 867Q477 867 488 858T499 833Q499 820 489 807T449 778Q418 761 387 744T323 710L305 735Z" />
<glyph unicode="&#xde;" glyph-name="Thorn" horiz-adv-x="611" d="M138 310V359Q138 424 138 488T136 617L44 628V669H332V628L235 617Q234 597 234 576T234 535H326Q457 535 521 483T586 346Q586 310 574 276T530 215T443 171T301 154H233Q234 129 234 104T235
52L332 41V0H44V41L136 52Q138 115 138 180T138 310ZM233 310Q233 284 233 257T233 201H317Q405 201 446 242T488 348Q488 416 446 452T314 488H233Q233 457 233 425T233 361V310Z" />
<glyph unicode="&#xdf;" glyph-name="germandbls" horiz-adv-x="592" d="M107 210V419Q107 500 116 550T142 632T183 688Q216 721 255 735T338 749Q415 749 463 711T512 613Q512 573 490 538T426 474Q393 450 381 427T369 381Q369 350 386 333T447 290Q496 260
522 236T560 188T571 131Q571 66 530 27T401 -13Q364 -13 330 -6T261 15L257 134H306L330 44Q350 37 366 35T396 32Q446 32 468 54T490 113Q490 131 484 146T459 178T403 218Q354 247 326 275T297 357Q297 395 313 426T365 486Q400 515 414 539T429 600Q429 647
404 675T323 704Q295 704 274 697T234 671Q220 657 210 635T196 576T191 476V210Q191 105 194 0H25V36L105 50Q106 91 106 130T107 210Z" />
<glyph unicode="&#xe0;" glyph-name="agrave" horiz-adv-x="509" d="M416 -10Q380 -10 356 11T326 67Q285 27 254 7T179 -13Q124 -13 85 18T45 112Q45 141 58 166T108 215T211 263Q234 271 264 280T324 296V321Q324 394 302 418T230 442Q219 442 206 441T176 436L157
371Q143 323 105 323Q63 323 58 364Q72 421 124 454T253 488Q332 488 370 449T408 314V101Q408 69 418 56T444 42Q457 42 466 48T483 64L503 42Q485 13 464 2T416 -10ZM134 127Q134 87 157 70T214 53Q229 53 242 57T275 72T324 106V259Q298 252 273 244T232 229Q189
212 168 194T141 159T134 127ZM311 576L285 557Q254 584 225 610T164 665Q143 685 137 697T130 720Q130 740 141 749T168 758Q182 758 195 749T222 717Q246 681 267 646T311 576Z" />
<glyph unicode="&#xe1;" glyph-name="aacute" horiz-adv-x="509" d="M416 -10Q380 -10 356 11T326 67Q285 27 254 7T179 -13Q124 -13 85 18T45 112Q45 141 58 166T108 215T211 263Q234 271 264 280T324 296V321Q324 394 302 418T230 442Q219 442 206 441T176 436L157
371Q143 323 105 323Q63 323 58 364Q72 421 124 454T253 488Q332 488 370 449T408 314V101Q408 69 418 56T444 42Q457 42 466 48T483 64L503 42Q485 13 464 2T416 -10ZM134 127Q134 87 157 70T214 53Q229 53 242 57T275 72T324 106V259Q298 252 273 244T232 229Q189
212 168 194T141 159T134 127ZM219 576Q261 647 308 717Q322 740 335 749T362 758Q376 758 388 749T400 720Q400 710 394 698T366 665Q335 637 306 611T245 557L219 576Z" />
<glyph unicode="&#xe2;" glyph-name="acircumflex" horiz-adv-x="509" d="M416 -10Q380 -10 356 11T326 67Q285 27 254 7T179 -13Q124 -13 85 18T45 112Q45 141 58 166T108 215T211 263Q234 271 264 280T324 296V321Q324 394 302 418T230 442Q219 442 206 441T176
436L157 371Q143 323 105 323Q63 323 58 364Q72 421 124 454T253 488Q332 488 370 449T408 314V101Q408 69 418 56T444 42Q457 42 466 48T483 64L503 42Q485 13 464 2T416 -10ZM134 127Q134 87 157 70T214 53Q229 53 242 57T275 72T324 106V259Q298 252 273 244T232
229Q189 212 168 194T141 159T134 127ZM378 546L252 660L126 546L103 568L235 744H269L401 568L378 546Z" />
<glyph unicode="&#xe3;" glyph-name="atilde" horiz-adv-x="509" d="M416 -10Q380 -10 356 11T326 67Q285 27 254 7T179 -13Q124 -13 85 18T45 112Q45 141 58 166T108 215T211 263Q234 271 264 280T324 296V321Q324 394 302 418T230 442Q219 442 206 441T176 436L157
371Q143 323 105 323Q63 323 58 364Q72 421 124 454T253 488Q332 488 370 449T408 314V101Q408 69 418 56T444 42Q457 42 466 48T483 64L503 42Q485 13 464 2T416 -10ZM134 127Q134 87 157 70T214 53Q229 53 242 57T275 72T324 106V259Q298 252 273 244T232 229Q189
212 168 194T141 159T134 127ZM80 586Q88 645 111 680T175 715Q200 715 217 705T248 681Q266 664 281 649T317 633Q340 633 354 654T379 713L406 703Q397 645 375 610T311 575Q286 575 270 584T238 608Q222 625 206 640T169 656Q147 656 133 635T107 577L80 586Z"
/>
<glyph unicode="&#xe4;" glyph-name="adieresis" horiz-adv-x="509" d="M416 -10Q380 -10 356 11T326 67Q285 27 254 7T179 -13Q124 -13 85 18T45 112Q45 141 58 166T108 215T211 263Q234 271 264 280T324 296V321Q324 394 302 418T230 442Q219 442 206 441T176
436L157 371Q143 323 105 323Q63 323 58 364Q72 421 124 454T253 488Q332 488 370 449T408 314V101Q408 69 418 56T444 42Q457 42 466 48T483 64L503 42Q485 13 464 2T416 -10ZM134 127Q134 87 157 70T214 53Q229 53 242 57T275 72T324 106V259Q298 252 273 244T232
229Q189 212 168 194T141 159T134 127ZM145 596Q121 596 104 612T86 653Q86 677 103 693T145 710Q170 710 187 694T205 653Q205 628 188 612T145 596ZM355 596Q330 596 313 612T295 653Q295 677 312 693T355 710Q379 710 396 694T414 653Q414 628 397 612T355 596Z"
/>
<glyph unicode="&#xe5;" glyph-name="aring" horiz-adv-x="509" d="M416 -10Q380 -10 356 11T326 67Q285 27 254 7T179 -13Q124 -13 85 18T45 112Q45 141 58 166T108 215T211 263Q234 271 264 280T324 296V321Q324 394 302 418T230 442Q219 442 206 441T176 436L157
371Q143 323 105 323Q63 323 58 364Q72 421 124 454T253 488Q332 488 370 449T408 314V101Q408 69 418 56T444 42Q457 42 466 48T483 64L503 42Q485 13 464 2T416 -10ZM134 127Q134 87 157 70T214 53Q229 53 242 57T275 72T324 106V259Q298 252 273 244T232 229Q189
212 168 194T141 159T134 127ZM257 590Q284 590 299 609T314 652Q314 675 300 694T257 713Q230 713 215 694T200 652Q200 629 214 610T257 590ZM257 550Q217 550 185 576T152 652Q152 699 184 726T257 753Q298 753 330 727T362 652Q362 604 330 577T257 550Z" />
<glyph unicode="&#xe6;" glyph-name="ae" horiz-adv-x="782" d="M543 442Q515 442 487 427T438 376T411 282H593Q629 282 641 297T653 334Q653 363 639 387T600 427T543 442ZM542 -13Q415 -13 356 84Q316 45 287 24T234 -5T179 -13Q124 -13 85 19T45 114Q45 143
58 167T108 214T211 261Q234 269 264 278T324 295V321Q324 394 302 418T233 442Q221 442 208 441T179 436L159 367Q145 319 105 319Q84 319 72 331T58 362Q72 419 124 453T253 488Q300 488 335 470T388 410Q420 446 461 467T548 488Q601 488 643 465T711 399T736
295Q736 279 734 265T729 240H409Q410 149 454 101T572 52Q619 52 651 71T711 122L734 103Q707 50 659 19T542 -13ZM134 129Q134 90 158 72T214 53Q233 53 249 58T286 76T341 114Q320 164 320 233Q320 239 320 245T321 257Q296 250 272 242T232 227Q189 210 168
193T141 160T134 129Z" />
<glyph unicode="&#xe7;" glyph-name="ccedilla" horiz-adv-x="488" d="M267 -13Q164 -13 103 54T42 236Q42 315 74 371T160 458T273 488Q318 488 356 471T419 425T450 358Q443 320 404 320Q379 320 367 333T349 368L331 434Q317 439 304 440T277 442Q213 442 172
392T130 246Q130 152 175 102T290 52Q333 52 369 71T428 128L453 115Q432 53 385 20T267 -13ZM237 -86L250 3H287L279 -58Q317 -64 344 -84T371 -140Q371 -174 343 -197T259 -220Q237 -220 222 -217T196 -211L203 -180Q227 -183 251 -183Q309 -183 309 -138Q309
-115 292 -103T237 -86Z" />
<glyph unicode="&#xe8;" glyph-name="egrave" horiz-adv-x="510" d="M269 442Q241 442 213 426T164 375T137 282H319Q355 282 366 297T378 334Q378 363 364 387T325 427T269 442ZM268 -13Q167 -13 106 52T45 233Q45 310 76 367T160 456T275 488Q327 488 369 465T436
400T461 296Q461 279 459 265T454 240H135Q137 148 181 100T297 52Q345 52 377 71T436 122L460 103Q432 50 384 19T268 -13ZM310 576L284 557Q253 584 224 610T163 665Q142 685 136 697T129 720Q129 740 140 749T167 758Q181 758 194 749T221 717Q245 681 266 646T310
576Z" />
<glyph unicode="&#xe9;" glyph-name="eacute" horiz-adv-x="510" d="M269 442Q241 442 213 426T164 375T137 282H319Q355 282 366 297T378 334Q378 363 364 387T325 427T269 442ZM268 -13Q167 -13 106 52T45 233Q45 310 76 367T160 456T275 488Q327 488 369 465T436
400T461 296Q461 279 459 265T454 240H135Q137 148 181 100T297 52Q345 52 377 71T436 122L460 103Q432 50 384 19T268 -13ZM225 576Q267 647 314 717Q328 740 341 749T368 758Q382 758 394 749T406 720Q406 710 400 698T372 665Q341 637 312 611T251 557L225 576Z"
/>
<glyph unicode="&#xea;" glyph-name="ecircumflex" horiz-adv-x="510" d="M269 442Q241 442 213 426T164 375T137 282H319Q355 282 366 297T378 334Q378 363 364 387T325 427T269 442ZM268 -13Q167 -13 106 52T45 233Q45 310 76 367T160 456T275 488Q327 488 369
465T436 400T461 296Q461 279 459 265T454 240H135Q137 148 181 100T297 52Q345 52 377 71T436 122L460 103Q432 50 384 19T268 -13ZM397 546L271 660L145 546L122 568L254 744H288L420 568L397 546Z" />
<glyph unicode="&#xeb;" glyph-name="edieresis" horiz-adv-x="510" d="M269 442Q241 442 213 426T164 375T137 282H319Q355 282 366 297T378 334Q378 363 364 387T325 427T269 442ZM268 -13Q167 -13 106 52T45 233Q45 310 76 367T160 456T275 488Q327 488 369
465T436 400T461 296Q461 279 459 265T454 240H135Q137 148 181 100T297 52Q345 52 377 71T436 122L460 103Q432 50 384 19T268 -13ZM166 596Q142 596 125 612T107 653Q107 677 124 693T166 710Q191 710 208 694T226 653Q226 628 209 612T166 596ZM376 596Q351
596 334 612T316 653Q316 677 333 693T376 710Q400 710 417 694T435 653Q435 628 418 612T376 596Z" />
<glyph unicode="&#xec;" glyph-name="igrave" horiz-adv-x="298" d="M35 0V36L109 50Q110 88 110 132T111 210V257Q111 298 111 325T108 383L29 392V427L184 488L199 478L196 342V210Q196 177 196 133T198 50L267 36V0H35ZM197 576L171 557Q140 584 111 610T50
665Q29 685 23 697T16 720Q16 740 27 749T54 758Q68 758 81 749T108 717Q132 681 153 646T197 576Z" />
<glyph unicode="&#xed;" glyph-name="iacute" horiz-adv-x="298" d="M35 0V36L109 50Q110 88 110 132T111 210V257Q111 298 111 325T108 383L29 392V427L184 488L199 478L196 342V210Q196 177 196 133T198 50L267 36V0H35ZM108 576Q150 647 197 717Q211 740 224
749T251 758Q265 758 277 749T289 720Q289 710 283 698T255 665Q224 637 195 611T134 557L108 576Z" />
<glyph unicode="&#xee;" glyph-name="icircumflex" horiz-adv-x="298" d="M35 0V36L109 50Q110 88 110 132T111 210V257Q111 298 111 325T108 383L29 392V427L184 488L199 478L196 342V210Q196 177 196 133T198 50L267 36V0H35ZM278 546L152 660L26 546L3 568L135
744H169L301 568L278 546Z" />
<glyph unicode="&#xef;" glyph-name="idieresis" horiz-adv-x="298" d="M54 596Q30 596 13 612T-5 653Q-5 677 12 693T54 710Q79 710 97 694T115 653Q115 628 97 612T54 596ZM243 596Q219 596 201 612T183 653Q183 677 201 693T243 710Q268 710 285 694T302 653Q302
628 285 612T243 596ZM35 0V36L109 50Q110 88 110 132T111 210V257Q111 298 111 325T108 383L29 392V427L184 488L199 478L196 342V210Q196 177 196 133T198 50L267 36V0H35Z" />
<glyph unicode="&#xf0;" glyph-name="eth" horiz-adv-x="546" d="M262 -13Q207 -13 157 15T76 98T45 234Q45 312 77 365T159 447T266 475Q347 475 392 425Q361 528 299 597L157 524L139 561L269 627Q245 650 216 672T151 716L171 749Q212 730 250 707T322 654L474
732L492 695L354 625Q419 561 457 476T495 280Q495 144 434 66T262 -13ZM271 32Q341 32 375 87T409 243Q409 337 373 383T271 429Q207 429 174 378T140 229Q140 133 174 83T271 32Z" />
<glyph unicode="&#xf1;" glyph-name="ntilde" horiz-adv-x="606" d="M40 0V36L114 50Q115 88 115 132T116 210V258Q116 299 116 326T113 383L34 392V427L174 488L189 478L197 398Q234 438 282 463T376 488Q441 488 472 445T504 303V210Q504 176 504 132T506 50L576
36V0H344V36L418 50Q419 87 419 131T420 210V295Q420 364 401 390T337 416Q303 416 271 402T201 356V210Q201 177 201 133T203 50L272 36V0H40ZM139 586Q147 645 170 680T234 715Q259 715 276 705T307 681Q325 664 340 649T376 633Q399 633 413 654T438 713L465
703Q456 645 434 610T370 575Q345 575 329 584T297 608Q281 625 265 640T228 656Q206 656 192 635T166 577L139 586Z" />
<glyph unicode="&#xf2;" glyph-name="ograve" horiz-adv-x="549" d="M274 -13Q216 -13 164 14T78 97T45 235Q45 318 78 374T163 459T274 488Q332 488 384 460T470 375T504 235Q504 153 471 98T385 15T274 -13ZM274 32Q339 32 374 83T409 235Q409 336 374 389T274
442Q209 442 175 389T140 235Q140 135 174 84T274 32ZM319 576L293 557Q262 584 233 610T172 665Q151 685 145 697T138 720Q138 740 149 749T176 758Q190 758 203 749T230 717Q254 681 275 646T319 576Z" />
<glyph unicode="&#xf3;" glyph-name="oacute" horiz-adv-x="549" d="M274 -13Q216 -13 164 14T78 97T45 235Q45 318 78 374T163 459T274 488Q332 488 384 460T470 375T504 235Q504 153 471 98T385 15T274 -13ZM274 32Q339 32 374 83T409 235Q409 336 374 389T274
442Q209 442 175 389T140 235Q140 135 174 84T274 32ZM236 576Q278 647 325 717Q339 740 352 749T379 758Q393 758 405 749T417 720Q417 710 411 698T383 665Q352 637 323 611T262 557L236 576Z" />
<glyph unicode="&#xf4;" glyph-name="ocircumflex" horiz-adv-x="549" d="M274 -13Q216 -13 164 14T78 97T45 235Q45 318 78 374T163 459T274 488Q332 488 384 460T470 375T504 235Q504 153 471 98T385 15T274 -13ZM274 32Q339 32 374 83T409 235Q409 336 374
389T274 442Q209 442 175 389T140 235Q140 135 174 84T274 32ZM400 546L274 660L148 546L125 568L257 744H291L423 568L400 546Z" />
<glyph unicode="&#xf5;" glyph-name="otilde" horiz-adv-x="549" d="M274 -13Q216 -13 164 14T78 97T45 235Q45 318 78 374T163 459T274 488Q332 488 384 460T470 375T504 235Q504 153 471 98T385 15T274 -13ZM274 32Q339 32 374 83T409 235Q409 336 374 389T274
442Q209 442 175 389T140 235Q140 135 174 84T274 32ZM111 586Q119 645 142 680T206 715Q231 715 248 705T279 681Q297 664 312 649T348 633Q371 633 385 654T410 713L437 703Q428 645 406 610T342 575Q317 575 301 584T269 608Q253 625 237 640T200 656Q178 656
164 635T138 577L111 586Z" />
<glyph unicode="&#xf6;" glyph-name="odieresis" horiz-adv-x="549" d="M274 -13Q216 -13 164 14T78 97T45 235Q45 318 78 374T163 459T274 488Q332 488 384 460T470 375T504 235Q504 153 471 98T385 15T274 -13ZM274 32Q339 32 374 83T409 235Q409 336 374 389T274
442Q209 442 175 389T140 235Q140 135 174 84T274 32ZM169 596Q145 596 128 612T110 653Q110 677 127 693T169 710Q194 710 211 694T229 653Q229 628 212 612T169 596ZM379 596Q354 596 337 612T319 653Q319 677 336 693T379 710Q403 710 420 694T438 653Q438 628
421 612T379 596Z" />
<glyph unicode="&#xf7;" glyph-name="divide" horiz-adv-x="531" d="M265 68Q237 68 217 86T197 134Q197 164 217 182T265 200Q294 200 314 182T334 134Q334 105 314 87T265 68ZM265 459Q237 459 217 477T197 525Q197 555 217 573T265 591Q294 591 314 573T334
525Q334 496 314 478T265 459ZM502 301H29V358H502V301Z" />
<glyph unicode="&#xf8;" glyph-name="oslash" horiz-adv-x="549" d="M487 475L440 416Q469 385 486 340T504 235Q504 153 471 98T385 15T274 -13Q236 -13 199 -1T132 35L87 -21L54 5L102 64Q76 95 61 137T45 235Q45 318 78 374T163 459T274 488Q348 488 409 444L455
501L487 475ZM135 235Q135 168 151 124L371 397Q337 442 274 442Q207 442 171 389T135 235ZM274 32Q341 32 377 83T414 235Q414 311 393 359L171 83Q206 32 274 32Z" />
<glyph unicode="&#xf9;" glyph-name="ugrave" horiz-adv-x="583" d="M223 -13Q162 -13 127 27T93 167L96 416L25 431V467L172 481L182 471L177 331V176Q177 111 197 85T257 58Q327 58 397 123L400 417L329 431V467L474 481L484 471L481 331V50L549 36V0L410 -8L400
81Q360 32 315 10T223 -13ZM323 576L297 557Q266 584 237 610T176 665Q155 685 149 697T142 720Q142 740 153 749T180 758Q194 758 207 749T234 717Q258 681 279 646T323 576Z" />
<glyph unicode="&#xfa;" glyph-name="uacute" horiz-adv-x="583" d="M223 -13Q162 -13 127 27T93 167L96 416L25 431V467L172 481L182 471L177 331V176Q177 111 197 85T257 58Q327 58 397 123L400 417L329 431V467L474 481L484 471L481 331V50L549 36V0L410 -8L400
81Q360 32 315 10T223 -13ZM237 576Q279 647 326 717Q340 740 353 749T380 758Q394 758 406 749T418 720Q418 710 412 698T384 665Q353 637 324 611T263 557L237 576Z" />
<glyph unicode="&#xfb;" glyph-name="ucircumflex" horiz-adv-x="583" d="M223 -13Q162 -13 127 27T93 167L96 416L25 431V467L172 481L182 471L177 331V176Q177 111 197 85T257 58Q327 58 397 123L400 417L329 431V467L474 481L484 471L481 331V50L549 36V0L410
-8L400 81Q360 32 315 10T223 -13ZM409 546L283 660L157 546L134 568L266 744H300L432 568L409 546Z" />
<glyph unicode="&#xfc;" glyph-name="udieresis" horiz-adv-x="583" d="M223 -13Q162 -13 127 27T93 167L96 416L25 431V467L172 481L182 471L177 331V176Q177 111 197 85T257 58Q327 58 397 123L400 417L329 431V467L474 481L484 471L481 331V50L549 36V0L410
-8L400 81Q360 32 315 10T223 -13ZM187 596Q163 596 146 612T128 653Q128 677 145 693T187 710Q212 710 229 694T247 653Q247 628 230 612T187 596ZM397 596Q372 596 355 612T337 653Q337 677 354 693T397 710Q421 710 438 694T456 653Q456 628 439 612T397 596Z"
/>
<glyph unicode="&#xfd;" glyph-name="yacute" horiz-adv-x="512" d="M317 439V475H512V439L458 428L297 3Q247 -130 201 -189T92 -249Q55 -249 28 -231T0 -183Q5 -161 24 -150T67 -139Q87 -139 104 -147T141 -177L146 -182Q178 -155 200 -117T236 -38L240 -26L59
431L4 439V475H244V438L156 428L281 87L404 427L317 439ZM247 576Q289 647 336 717Q350 740 363 749T390 758Q404 758 416 749T428 720Q428 710 422 698T394 665Q363 637 334 611T273 557L247 576Z" />
<glyph unicode="&#xfe;" glyph-name="thorn" horiz-adv-x="554" d="M419 234Q419 330 384 380T292 431Q270 431 241 420T173 377V96Q202 69 231 57T287 44Q340 44 379 90T419 234ZM263 -204V-239H6V-204L86 -190Q87 -149 87 -109T88 -28V649L7 659V694L160 739L174
731L170 589V417Q205 454 242 471T319 488Q372 488 415 459T483 375T509 242Q509 165 482 108T409 19T303 -13Q269 -13 236 1T170 53V-28Q170 -68 170 -108T172 -189L263 -204Z" />
<glyph unicode="&#xff;" glyph-name="ydieresis" horiz-adv-x="512" d="M317 439V475H512V439L458 428L297 3Q247 -130 201 -189T92 -249Q55 -249 28 -231T0 -183Q5 -161 24 -150T67 -139Q87 -139 104 -147T141 -177L146 -182Q178 -155 200 -117T236 -38L240 -26L59
431L4 439V475H244V438L156 428L281 87L404 427L317 439ZM179 596Q155 596 138 612T120 653Q120 677 137 693T179 710Q204 710 221 694T239 653Q239 628 222 612T179 596ZM389 596Q364 596 347 612T329 653Q329 677 346 693T389 710Q413 710 430 694T448 653Q448
628 431 612T389 596Z" />
<glyph unicode="&#x2013;" glyph-name="endash" horiz-adv-x="512" d="M40 218V284H472V218H40Z" />
<glyph unicode="&#x2014;" glyph-name="emdash" horiz-adv-x="812" d="M40 218V284H772V218H40Z" />
<glyph unicode="&#x2018;" glyph-name="quoteleft" horiz-adv-x="212" d="M37 534Q37 578 56 618T106 691T175 749L194 722Q158 693 136 668T96 602L125 576Q148 557 156 539T164 502Q164 472 148 458T105 443Q90 443 77 447T51 463Q37 497 37 534Z" />
<glyph unicode="&#x2019;" glyph-name="quoteright" horiz-adv-x="212" d="M175 658Q175 615 156 575T106 501T37 443L18 470Q54 499 77 524T116 590L87 616Q65 636 57 653T48 690Q48 720 64 734T107 749Q122 749 135 745T161 729Q175 695 175 658Z" />
<glyph unicode="&#x201a;" glyph-name="quotesinglbase" horiz-adv-x="212" d="M175 59Q175 16 156 -24T106 -98T37 -156L18 -129Q54 -100 77 -75T116 -9L87 17Q65 37 57 54T48 91Q48 121 64 135T107 150Q122 150 135 146T161 130Q175 96 175 59Z" />
<glyph unicode="&#x201c;" glyph-name="quotedblleft" horiz-adv-x="415" d="M37 534Q37 578 56 618T106 691T175 749L194 722Q158 693 136 668T96 602L125 576Q148 557 156 539T164 502Q164 472 148 458T105 443Q90 443 77 447T51 463Q37 497 37 534ZM240 534Q240
578 259 618T309 691T378 749L397 722Q361 693 339 668T299 602L328 576Q351 557 359 539T367 502Q367 472 351 458T308 443Q293 443 280 447T254 463Q240 497 240 534Z" />
<glyph unicode="&#x201d;" glyph-name="quotedblright" horiz-adv-x="415" d="M175 658Q175 615 156 575T106 501T37 443L18 470Q54 499 77 524T116 590L87 616Q65 636 57 653T48 690Q48 720 64 734T107 749Q122 749 135 745T161 729Q175 695 175 658ZM378 658Q378
615 359 575T309 501T240 443L221 470Q257 499 280 524T319 590L290 616Q268 636 260 653T251 690Q251 720 267 734T310 749Q325 749 338 745T364 729Q378 695 378 658Z" />
<glyph unicode="&#x201e;" glyph-name="quotedblbase" horiz-adv-x="415" d="M175 59Q175 16 156 -24T106 -98T37 -156L18 -129Q54 -100 77 -75T116 -9L87 17Q65 37 57 54T48 91Q48 121 64 135T107 150Q122 150 135 146T161 130Q175 96 175 59ZM378 59Q378 16
359 -24T309 -98T240 -156L221 -129Q257 -100 280 -75T319 -9L290 17Q268 37 260 54T251 91Q251 121 267 135T310 150Q325 150 338 146T364 130Q378 96 378 59Z" />
<glyph unicode="&#x2022;" glyph-name="bullet" horiz-adv-x="305" d="M153 217Q109 217 76 248T42 330Q42 380 75 411T153 442Q197 442 230 411T264 330Q264 280 231 249T153 217Z" />
<glyph unicode="&#x2039;" glyph-name="guilsinglleft" horiz-adv-x="285" d="M235 50L30 226V279L235 455L259 428L109 252L259 77L235 50Z" />
<glyph unicode="&#x203a;" glyph-name="guilsinglright" horiz-adv-x="285" d="M50 455L255 279V226L50 50L26 77L176 252L26 428L50 455Z" />
</font>
</defs>
</svg>
